Черные праздники / Holidays (2016) BDRip 1080p | D

 
Автор Сообщение

BOSS ®

Пол:

Стаж: 3 года

Сообщений: 7605

Откуда: ODESSA



Награды: 22 (Подробнее)

За внесенный вклад в развитие сайта (Количество: 1) Mega Seeder 5 (Количество: 1) Top Seeder 3 (Количество: 1)
Торрент-статистика

Создавать темы 05-Окт-2017 17:00

[Цитировать]

Информация о фильме
Название: Черные праздники
Оригинальное название: Holidays
Год выхода: 2016
Жанр: Ужасы, комедия
Режиссер: Энтони Скотт Бёрнс, Кевин Колш, Николас МакКарти
В ролях: Лоренца Иззо, Кевин Смит (I), Сет Грин, Клэр Грант, Рут Брэдли, Майкл Гросс, Джоселин Донахью, Ава Акрес, Майкл Сунь Ли, Эндрю Бауэн, Харли Моренштейн, Скотт Чарльз Стюарт, Шоун Парсонс, Кейт Рачески, Питер Кэмпион, Дженнифер ЛаФлер, Соня Кински, Марк Стегер, Софи Трауб, Меган Даффи
О фильме:
Мы привыкли ждать от праздников только всего самого доброго и хорошего, но у каждого из них есть и своя темная сторона — страшные и леденящие душу истории, которые не могли произойти в обычный день. Все они случились в одном богом забытом городе, во время таких праздников, как Хэллоуин, Пасха, День Святого Валентина, Рождество… Антология всеми любимых праздников, пропущенных через призму человеческих страхов и предубеждений.

Страна: США
Студия: ArtCastle Productions, Distant Corners Entertainment Group Inc. XYZ Films
Продолжительность: 01:44:21
Перевод: Дублированный
Файл
Кодек: h.264
Качество: BDRip 1080p
Видео: MPEG-4 AVC, 6785 Кбит/с, 1920x1080, 23,976 кадр/с
Звук:
Русский (AC3, 6 ch, 384 Кбит/с) / Дублированный (Netflix)
Английский (DTS, 6 ch, 1509 Кбит/с)
Субтитры: Русские (форсированные), русские
Семпл

О релизе

Источник: HOLIDAYS_REMUX_HDCLUB
Сохранены оригинальные главы как на Blu-ray

MI

General
Unique ID : 215551223305000063589892845881413989789 (0xA229A7D234C06837BAFBB637534DF59D)
Complete name : D:uTorrentCjernye.prazdniki.2016.BDRip.1080p.MediaClub.mkv
Format : Matroska
Format version : Version 4 / Version 2
File size : 6.32 GiB
Duration : 1 h 44 min
Overall bit rate : 8 677 kb/s
Encoded date : UTC 2017-10-04 16:05:39 / UTC 2017-10-03T21:30:29Z
Writing application : mkvmerge v16.0.0 ('Protest') 64-bit
Writing library : libebml v1.3.5 + libmatroska v1.4.8 / Lavf57.7.2
Video
ID : 1
Format : AVC
Format/Info : Advanced Video Codec
Format profile : High@L4.1
Format settings, CABAC : Yes
Format settings, ReFrames : 4 frames
Codec ID : V_MPEG4/ISO/AVC
Duration : 1 h 44 min
Bit rate : 6 785 kb/s
Width : 1 920 pixels
Height : 1 080 pixels
Display aspect ratio : 16:9
Frame rate mode : Constant
Frame rate : 23.976 (24000/1001) FPS
Color space : YUV
Chroma subsampling : 4:2:0
Bit depth : 8 bits
Scan type : Progressive
Bits/(Pixel*Frame) : 0.136
Stream size : 4.82 GiB (76%)
Title : BDRip by Silverok
Writing library : x264 core 148 r2708 86b7198
Encoding settings : cabac=1 / ref=4 / deblock=1:-3:-3 / analyse=0x3:0x113 / me=umh / subme=11 / psy=1 / psy_rd=1.00:0.00 / mixed_ref=1 / me_range=24 / chroma_me=1 / trellis=2 / 8x8dct=1 / cqm=0 / deadzone=21,11 / fast_pskip=1 / chroma_qp_offset=-2 / threads=12 / lookahead_threads=1 / sliced_threads=0 / nr=0 / decimate=0 / interlaced=0 / bluray_compat=0 / constrained_intra=0 / bframes=16 / b_pyramid=2 / b_adapt=1 / b_bias=0 / direct=1 / weightb=1 / open_gop=0 / weightp=2 / keyint=240 / keyint_min=24 / scenecut=40 / intra_refresh=0 / rc_lookahead=40 / rc=2pass / mbtree=1 / bitrate=6785 / ratetol=1.0 / qcomp=0.60 / qpmin=0 / qpmax=69 / qpstep=4 / cplxblur=20.0 / qblur=0.5 / vbv_maxrate=62500 / vbv_bufsize=78125 / nal_hrd=none / filler=0 / ip_ratio=1.40 / aq=1:1.00
Default : Yes
Forced : No
Color range : Limited
Color primaries : BT.709
Transfer characteristics : BT.709
Matrix coefficients : BT.709
Statistics Tags Issue : mkvmerge v16.0.0 ('Protest') 64-bit 2017-10-04 16:05:39 / mkvmerge v16.0.0 ('Protest') 64-bit 2017-10-04 16:05:39 / UTC 2017-10-03T21:30:29Z
FromStats_BitRate : 6781266
FromStats_Duration : 01:44:21.464000000
FromStats_FrameCount : 150124
FromStats_StreamSize : 5307582251
Audio #1
ID : 2
Format : AC-3
Format/Info : Audio Coding 3
Format settings, Endianness : Big
Codec ID : A_AC3
Duration : 1 h 44 min
Bit rate mode : Constant
Bit rate : 384 kb/s
Channel(s) : 6 channels
Channel positions : Front: L C R, Side: L R, LFE
Sampling rate : 48.0 kHz
Frame rate : 31.250 FPS (1536 spf)
Bit depth : 16 bits
Compression mode : Lossy
Stream size : 287 MiB (4%)
Title : Дубляж, Netflix
Language : Russian
Service kind : Complete Main
Default : Yes
Forced : No
Statistics Tags Issue : mkvmerge v16.0.0 ('Protest') 64-bit 2017-10-04 16:05:39 / mkvmerge v16.0.0 ('Protest') 64-bit 2017-10-04 16:05:39 / UTC 2017-10-03T21:30:29Z
FromStats_BitRate : 384000
FromStats_Duration : 01:44:21.472000000
FromStats_FrameCount : 195671
FromStats_StreamSize : 300550656
Audio #2
ID : 3
Format : DTS
Format/Info : Digital Theater Systems
Mode : 16
Format settings, Endianness : Big
Codec ID : A_DTS
Duration : 1 h 44 min
Bit rate mode : Constant
Bit rate : 1 509 kb/s
Channel(s) : 6 channels
Channel positions : Front: L C R, Side: L R, LFE
Sampling rate : 48.0 kHz
Frame rate : 93.750 FPS (512 spf)
Bit depth : 16 bits
Compression mode : Lossy
Stream size : 1.10 GiB (17%)
Language : English
Default : No
Forced : No
Statistics Tags Issue : mkvmerge v16.0.0 ('Protest') 64-bit 2017-10-04 16:05:39 / mkvmerge v16.0.0 ('Protest') 64-bit 2017-10-04 16:05:39 / UTC 2017-10-03T21:30:29Z
FromStats_BitRate : 1508999
FromStats_Duration : 01:44:21.430000000
FromStats_FrameCount : 587009
FromStats_StreamSize : 1181062108
Text #1
ID : 4
Format : UTF-8
Codec ID : S_TEXT/UTF8
Codec ID/Info : UTF-8 Plain Text
Title : Форсированные
Language : Russian
Default : Yes
Forced : Yes
Statistics Tags Issue : mkvmerge v16.0.0 ('Protest') 64-bit 2017-10-04 16:05:39 / mkvmerge v16.0.0 ('Protest') 64-bit 2017-10-04 16:05:39 / UTC 2017-10-03T21:30:29Z
FromStats_BitRate : 6
FromStats_Duration : 01:34:52.066000000
FromStats_FrameCount : 107
FromStats_StreamSize : 4908
Text #2
ID : 5
Format : UTF-8
Codec ID : S_TEXT/UTF8
Codec ID/Info : UTF-8 Plain Text
Title : Полные
Language : Russian
Default : No
Forced : No
Statistics Tags Issue : mkvmerge v16.0.0 ('Protest') 64-bit 2017-10-04 16:05:39 / mkvmerge v16.0.0 ('Protest') 64-bit 2017-10-04 16:05:39 / UTC 2017-10-03T21:30:29Z
FromStats_BitRate : 66
FromStats_Duration : 01:41:51.819000000
FromStats_FrameCount : 969
FromStats_StreamSize : 51127
Menu
00:00:00.000 : :Chapter 1
00:02:10.088 : :Chapter 2
00:14:21.194 : :Chapter 3
00:28:34.171 : :Chapter 4
00:39:51.180 : :Chapter 5
00:52:36.362 : :Chapter 6
01:06:02.500 : :Chapter 7
01:17:57.923 : :Chapter 8
01:27:29.119 : :Chapter 9
01:37:18.041 : :Chapter 10

Скриншоты

[Профиль] [ЛС]
Показать сообщения:    

Текущее время: Сегодня 14:30

Часовой пояс: GMT



Вы не можете начинать темы
Вы не можете отвечать на сообщения
Вы не можете редактировать свои сообщения
Вы не можете удалять свои сообщения
Вы не можете голосовать в опросах
Вы не можете прикреплять файлы к сообщениям
Вы не можете скачивать файлы