Черные праздники / Holidays (2016) WEB-DL 1080p | L2

 
Автор Сообщение

BOSS ®

Пол:

Стаж: 2 года 1 месяц

Сообщений: 3719

Откуда: ODESSA



Награды: 20 (Подробнее)

Mega Seeder 4 (Количество: 1) Top Releaser 2 (Количество: 1) Top Seeder 4 (Количество: 1)
Торрент-статистика

Создавать темы 19-Апр-2016 17:31

[Цитировать]

Информация о фильме
Название: Черные праздники
Оригинальное название: Holidays
Год выхода: 2016
Жанр: ужасы, комедия
Режиссер: Энтони Скотт Бёрнс, Кевин Колш, Николас МакКарти, Адам Иджипт Мортимер, Гари Шор, Кевин Смит, Сара Адина, Скотт Чарльз Стюарт, Деннис Уидмайер
В ролях: Кевин Смит, Лоренца Иззо, Сет Грин, Клэр Грант, Майкл Гросс, Эндрю Бауэн, Рут Брэдли, Майкл Сунь Ли, Ава Акрес, Джоселин Донахью и др.
О фильме: Антология всеми любимых праздников, пропущенных через призму человеческих страхов и предубеждений.

Выпущено: США / ArtCastle Productions, Distant Corners Entertainment Group Inc., XYZ Films
Продолжительность: 01:44:32
Озвучивание: Любительское (двухголосое) [Parovoz Production]
Примечание: Релиз без рекламы.
Файл
Формат: MKV
Качество: WEB-DL 1080p
Видео: MPEG-4 AVC, 4359 kb/s, 1920x1080
Аудио: Russian: AC3, 192 kb/s (2 ch) / English: AC3, 384 kb/s (6 ch)
Субтитры: English

MI

Format : Matroska
Format version : Version 2
File size : 3.68 GiB
Duration : 1h 44mn
Overall bit rate : 5 035 Kbps
Encoded date : UTC 2016-04-19 16:03:59
Writing application : mkvmerge v7.8.0 ('River Man') 32bit built on Apr 3 2015 12:11:22
Writing library : libebml v1.3.1 + libmatroska v1.4.2
Video
ID : 1
Format : AVC
Format/Info : Advanced Video Codec
Format profile : High@L4
Format settings, CABAC : Yes
Format settings, ReFrames : 4 frames
Codec ID : V_MPEG4/ISO/AVC
Duration : 1h 44mn
Bit rate : 4 359 Kbps
Width : 1 920 pixels
Height : 1 080 pixels
Display aspect ratio : 16:9
Frame rate mode : Constant
Frame rate : 23.976 fps
Color space : YUV
Chroma subsampling : 4:2:0
Bit depth : 8 bits
Scan type : Progressive
Bits/(Pixel*Frame) : 0.088
Stream size : 3.18 GiB (87%)
Language : English
Default : Yes
Forced : No
Color range : Limited
Color primaries : BT.709
Transfer characteristics : BT.709
Matrix coefficients : BT.709
Audio #1
ID : 2
Format : AC-3
Format/Info : Audio Coding 3
Mode extension : CM (complete main)
Format settings, Endianness : Big
Codec ID : A_AC3
Duration : 1h 44mn
Bit rate mode : Constant
Bit rate : 192 Kbps
Channel(s) : 2 channels
Channel positions : Front: L R
Sampling rate : 48.0 KHz
Bit depth : 16 bits
Compression mode : Lossy
Stream size : 144 MiB (4%)
Language : Russian
Default : Yes
Forced : No
Audio #2
ID : 3
Format : AC-3
Format/Info : Audio Coding 3
Mode extension : CM (complete main)
Format settings, Endianness : Big
Codec ID : A_AC3
Duration : 1h 44mn
Bit rate mode : Constant
Bit rate : 384 Kbps
Channel(s) : 6 channels
Channel positions : Front: L C R, Side: L R, LFE
Sampling rate : 48.0 KHz
Bit depth : 16 bits
Compression mode : Lossy
Stream size : 287 MiB (8%)
Language : English
Default : No
Forced : No
Text
ID : 4
Format : UTF-8
Codec ID : S_TEXT/UTF8
Codec ID/Info : UTF-8 Plain Text
Language : English
Default : No
Forced : No
Menu
00:00:00.000 : en:Opening Sequence
00:06:51.000 : en:Valentine's Day
00:14:34.000 : en:St. Patrick's Day
00:20:53.000 : en:A Normal Baby
00:28:46.000 : en:Easter
00:32:39.000 : en:Your Turn
00:40:03.000 : en:Mother's Day
00:45:38.000 : en:Kidnapped
00:52:48.000 : en:Father's Day
00:58:37.000 : en:Where To Find Us
01:06:15.000 : en:Halloween
01:12:25.000 : en:Do It Or Die
01:18:10.000 : en:Christmas
01:22:34.000 : en:Adverse Reaction
01:27:40.000 : en:New Year's
01:37:26.000 : en:End Credits

Скриншоты




[Профиль] [ЛС]
Показать сообщения:    

Текущее время: Сегодня 18:38

Часовой пояс: GMT



Вы не можете начинать темы
Вы не можете отвечать на сообщения
Вы не можете редактировать свои сообщения
Вы не можете удалять свои сообщения
Вы не можете голосовать в опросах
Вы не можете прикреплять файлы к сообщениям
Вы не можете скачивать файлы