Черные метки / The Art of the Steal (2013) BDRip [720p]

 
Автор Сообщение

sergej644 ®

Пол:

Стаж: 4 года 11 месяцев

Сообщений: 6045

Откуда: Soviet Union



Награды: Нет

Торрент-статистика

Создавать темы 02-Авг-2014 20:14

[Цитировать]

-Черные метки / The Art of the Steal (2013) BDRip [720p]- Год выпуска: 2013
Производство: Канада, США, Weinstein Company, The, Sony Pictures, Entertainment One
Жанр: Комедия, Криминал
Режиссер: Джонатан Собол
Продюсер: Николас Табаррок, Леа Джаунземс, Марек Посивал
Актеры: Курт Рассел, Мэтт Диллон, Теренс Стэмп, Джей Барушель, Кэтрин Уинник, Крис Диамантополос, Кеннет Уэлш, Джейсон Джонс, Девон Бостик, Керин Двайер
Описание фильма:
Фильм рассказывает о байкере-сорвиголове, специализирующемся на краже произведений искусства. Он уже было собрался завязать с преступным прошлым, но все-таки не находит в себе силы отказаться от осуществления еще одной очень заманчивой кражи вместе со своим неблагонадежным братцем. Все в итоге идет наперекосяк, поскольку оказывается, что у каждого из братьев свой план.
Перевод: Многоголосый закадровый, профессиональный (iTunes)
Субтитры: Отсутствуют

Дата мировой премьеры: 11 сентября 2013
Дата выхода DVD релиза : 12 августа 2014, «Columbia/Sony»
Дата выхода Blu-ray релиза : 12 августа 2014, «Columbia/Sony»
Продолжительность: 01:30:15
Качество видео: BDRip [720p] [Profile LQ]
Видеокодек: MPEG-4 AVC/H.264
Битрейт видео: ~5420 Kbps
Размер кадра: 1280x536
Аудио #1: Русский: AC3, 48.0 KHz, 2 ch, 384 Kbps, CBR
Аудио #2: Английский: DTS, 48.0 KHz, 6 ch, 1510 Kbps, CBR
Сэмпл: Скачать

MediaInfo:

Общее
Уникальный идентификатор : 219113513529937976663383619631716189031 (0xA4D7BA4A11F43678AC52A5CEFC4B4367)
Полное имя : D:\Фильмы\Chernye.Metki.2014.P.BDRip.720p.mkv
Формат : Matroska
Версия формата : Version 4 / Version 2
Размер файла : 4,61 Гбайт
Продолжительность : 1 ч. 30 м.
Общий поток : 7315 Кбит/сек
Дата кодирования : UTC 2014-07-15 14:50:08
Программа кодирования : mkvmerge v7.0.0 ('Where We Going') 64bit built on Jun 9 2014 15:16:27
Библиотека кодирования : libebml v1.3.0 + libmatroska v1.4.1
DURATION : 01:30:14.016000000
NUMBER_OF_FRAMES : 169188
NUMBER_OF_BYTES : 259872768
_STATISTICS_WRITING_APP : mkvmerge v7.0.0 ('Where We Going') 64bit built on Jun 9 2014 15:16:27
_STATISTICS_WRITING_DATE_UTC : 2014-07-15 14:50:08
_STATISTICS_TAGS : BPS DURATION NUMBER_OF_FRAMES NUMBER_OF_BYTES
Attachment : Yes
Видео
Идентификатор : 1
Формат : AVC
Формат/Информация : Advanced Video Codec
Профиль формата : [url=mailto:High@L4.1]High@L4.1[/url]
Параметр CABAC формата : Да
Параметр ReFrames формата : 5 кадров
Идентификатор кодека : V_MPEG4/ISO/AVC
Продолжительность : 1 ч. 30 м.
Битрейт : 5420 Кбит/сек
Ширина : 1280 пикселей
Высота : 536 пикселей
Соотношение сторон : 2,40:1
Режим частоты кадров : Постоянный
Частота кадров : 23,976 кадра/сек
Цветовое пространство : YUV
Субдискретизация насыщенности : 4:2:0
Битовая глубина : 8 бит
Тип развёртки : Прогрессивная
Бит/(Пиксели*Кадры) : 0.329
Размер потока : 3,33 Гбайт (72%)
Библиотека кодирования : x264 core 140 r2377 1ca7bb9
Настройки программы : cabac=1 / ref=5 / deblock=1:0:0 / analyse=0x3:0x133 / me=umh / subme=7 / psy=1 / psy_rd=1.00:0.00 / mixed_ref=1 / me_range=16 / chroma_me=1 / trellis=1 / 8x8dct=1 / cqm=0 / deadzone=21,11 / fast_pskip=0 / chroma_qp_offset=-2 / threads=12 / lookahead_threads=2 / sliced_threads=0 / nr=0 / decimate=1 / interlaced=0 / bluray_compat=0 / constrained_intra=0 / bframes=3 / b_pyramid=2 / b_adapt=1 / b_bias=0 / direct=1 / weightb=1 / open_gop=0 / weightp=2 / keyint=250 / keyint_min=23 / scenecut=40 / intra_refresh=0 / rc_lookahead=40 / rc=2pass / mbtree=1 / bitrate=5420 / ratetol=1.0 / qcomp=0.60 / qpmin=0 / qpmax=69 / qpstep=4 / cplxblur=20.0 / qblur=0.5 / ip_ratio=1.40 / aq=1:1.00
Язык : English
Default : Да
Forced : Нет
DURATION : 01:30:14.043000000
NUMBER_OF_FRAMES : 129807
NUMBER_OF_BYTES : 3667274297
_STATISTICS_WRITING_APP : mkvmerge v7.0.0 ('Where We Going') 64bit built on Jun 9 2014 15:16:27
_STATISTICS_WRITING_DATE_UTC : 2014-07-15 14:50:08
_STATISTICS_TAGS : BPS DURATION NUMBER_OF_FRAMES NUMBER_OF_BYTES
Аудио #1
Идентификатор : 2
Формат : AC-3
Формат/Информация : Audio Coding 3
Расширение режима : CM (complete main)
Параметр Endianness формата : Big
Идентификатор кодека : A_AC3
Продолжительность : 1 ч. 30 м.
Вид битрейта : Постоянный
Битрейт : 384 Кбит/сек
Каналы : 2 канала
Расположение каналов : Front: L R
Частота : 48,0 КГц
Битовая глубина : 16 бит
Метод сжатия : С потерями
Размер потока : 248 Мбайт (5%)
Заголовок : AC3 / 2.0 / 384 Kbps / iTunes
Язык : Russian
Default : Да
Forced : Нет
Аудио #2
Идентификатор : 3
Формат : DTS
Формат/Информация : Digital Theater Systems
Режим : 16
Параметр Endianness формата : Big
Идентификатор кодека : A_DTS
Продолжительность : 1 ч. 30 м.
Вид битрейта : Постоянный
Битрейт : 1509 Кбит/сек
Каналы : 6 каналов
Расположение каналов : Front: L C R, Side: L R, LFE
Частота : 48,0 КГц
Битовая глубина : 24 бит
Метод сжатия : С потерями
Размер потока : 974 Мбайт (21%)
Заголовок : DTS / 5.1 / 1510 Kbps / Original
Язык : English
Default : Нет
Forced : Нет
Меню
00:00:00.000 : en:00:00:00.000
00:05:06.348 : en:00:05:06.348
00:10:32.257 : en:00:10:32.257
00:17:03.481 : en:00:17:03.481
00:21:52.353 : en:00:21:52.353
00:27:33.068 : en:00:27:33.068
00:33:23.793 : en:00:33:23.793
00:41:40.540 : en:00:41:40.540
00:46:21.529 : en:00:46:21.529
00:50:57.429 : en:00:50:57.429
00:56:38.729 : en:00:56:38.729
01:02:27.827 : en:01:02:27.827
01:07:25.375 : en:01:07:25.375
01:12:30.179 : en:01:12:30.179
01:18:13.898 : en:01:18:13.898
01:23:54.071 : en:01:23:54.071

Avdump:

File: D:\Фильмы\Chernye.Metki.2014.P.BDRip.720p.mkv
Duration: 01:30:14 (5414.04)
Track #1: video
lang: Unknown (1)
codc: V_MPEG4/ISO/AVC -> H264/AVC (22)
reso: 1280x536 -> Unknown (aka not common)
fram: 23.976 fps
rate: 5419 kbps (5418.95)
dura: 01:30:14 (5414)
size: 3.42 GB (3667274297)
Track #2: audio (AC3 / 2.0 / 384 Kbps / iTunes)
lang: rus -> Russian (15)
codc: A_AC3 -> AC3 (2)
chan: 2 -> Stereo
samp: 48000 Hz
rate: 384 kbps (384.04)
dura: 01:30:14 (5413.98)
size: 247.86 MB (259895144)
Track #3: audio (DTS / 5.1 / 1510 Kbps / Original)
lang: Unknown (1)
codc: A_DTS -> DTS (13)
chan: 6 -> 5.1 Surround
samp: 48000 Hz
rate: 1509 kbps (1509.12)
dura: 01:30:14 (5413.96)
size: 973.98 MB (1021287511)
Sizes: (check sanity)
disk: 4.61 GB (4950224393)
atts: 84.86 KB (86892)
trac: 4.61 GB (4948456952) [based on track size]
bitr: 4.61 GB (4948464964) [based on bitrate]
tdif: 1.60 MB (1680549) 0.03%
bdif: 1.60 MB (1672536) 0.03%
Скриншоты:
[Профиль] [ЛС]

Создавать темы 06-Авг-2015 23:22 (спустя 1 год)

Топик был перенесен из форума Фильмы до 2014 года в форум Фильмы (HD Rips | 720p, 1080p)
sergej644
 
Показать сообщения:    

Текущее время: Сегодня 22:23

Часовой пояс: GMT



Вы не можете начинать темы
Вы не можете отвечать на сообщения
Вы не можете редактировать свои сообщения
Вы не можете удалять свои сообщения
Вы не можете голосовать в опросах
Вы не можете прикреплять файлы к сообщениям
Вы не можете скачивать файлы