Чернокнижник 3: Последняя битва / Warlock III: The End of Innocence (1999) WEB-DLRip-AVC | P2

 
Автор Сообщение

Russian Mafia ®

Пол:

Стаж: 1 год 8 месяцев

Сообщений: 4246



Награды: 10 (Подробнее)

Top Releaser 5 (Количество: 1) Mega Seeder 3 (Количество: 1) Mega Seeder 1 (Количество: 1)
Торрент-статистика

Создавать темы 29-Май-2016 11:21

[Цитировать]

Производство: США
Жанр: Ужасы, Триллер
Режиссер: рик Фрейзер
Актеры: Брюс Пэйн, Эшли Лоуренс, Пол Френсис, Энджел Борис, Рик Хёрст, Боти Блисс, Имон Дрэйпер
Описание:
Он вернулся, чтобы обрести бессмертие. Для этого он должен забрать ее кровь и душу. 350 лет назад ведьма из Новой Англии Кэтрин Миллер вырвала свою дочь из лап демонического Чернокнижника. Чтобы обрести бессмертие, он должен был забрать кровь и душу дочери Кэтрин, сделав ее вечной Невестой Тьмы.
Но Чернокнижнику пришлось затаиться до наших дней. Крис Миллер росла сиротой. Узнав об оставленном ей в наследство заброшенном доме 16-го века, она решила осмотреть его и провести в нем выходные.
Крис сразу почувствовала какую — то странную ауру дома, а ночью ее мучили кошмары и необычные видения. Но приехавшие в гости друзья рассеяли ее страхи. А в самый разгар веселья в доме появился незнакомец с изящными манерами, очаровавший всех присутствующих.
Этот нежданный гость — Чернокнижник, явившийся забрать то, что обеспечит ему бессмертие — душу Крис. Но жертва должна отдать ее добровольно…
Продолжительность: 01:34:54
Качество видео: WEB-DLRip-AVC
Перевод: Профессиональный (двуголосый, закадровый)
Язык субтитров: Английский
Вид субтитров: Вшитые отключаемые
Видео: AVC, 1024x576 (16:9), 23.976 fps, 2 898 Kbps (0.205 bit/pixel)
Аудио #1: AC-3, 48.0 KHz, 6 ch, 384 Kbps, CBR (Russian)
Аудио #2: AC-3, 48.0 KHz, 2 ch, 128 Kbps, CBR (Russian)
Аудио #3: AC-3, 48.0 KHz, 2 ch, 192 Kbps, CBR (English)

Mediainfo:

Формат : Matroska
Версия формата : Version 2
Размер файла : 2,39 Гбайт
Продолжительность : 1 ч. 34 м.
Общий поток : 3600 Кбит/сек
Название фильма :
Дата кодирования : UTC 2016-05-27 10:32:27
Программа кодирования : mkvmerge v5.3.0 ('I could have danced') built on Feb 9 2012 10:38:07
Библиотека кодирования : libebml v1.2.3 + libmatroska v1.3.0
Attachment : Yes
Видео
Идентификатор : 1
Формат : AVC
Формат/Информация : Advanced Video Codec
Профиль формата : High@L4.1
Параметр CABAC формата : Да
Параметр ReFrames формата : 10 кадров
Идентификатор кодека : V_MPEG4/ISO/AVC
Продолжительность : 1 ч. 34 м.
Битрейт : 2898 Кбит/сек
Ширина : 1024 пикселя
Высота : 576 пикселей
Соотношение сторон : 16:9
Режим частоты кадров : Постоянный
Частота кадров : 23,976 кадра/сек
Цветовое пространство : YUV
Субдискретизация насыщенности : 4:2:0
Битовая глубина : 8 бит
Тип развёртки : Прогрессивная
Бит/(Пиксели*Кадры) : 0.205
Размер потока : 1,87 Гбайт (78%)
Библиотека кодирования : x264 core 146 r2538 121396c
Настройки программы : cabac=1 / ref=10 / deblock=1:-3:-3 / analyse=0x3:0x133 / me=umh / subme=10 / psy=1 / psy_rd=1.00:0.10 / mixed_ref=1 / me_range=32 / chroma_me=1 / trellis=2 / 8x8dct=1 / cqm=0 / deadzone=21,11 / fast_pskip=0 / chroma_qp_offset=-3 / threads=12 / lookahead_threads=2 / sliced_threads=0 / nr=0 / decimate=0 / interlaced=0 / bluray_compat=0 / constrained_intra=0 / bframes=8 / b_pyramid=2 / b_adapt=2 / b_bias=0 / direct=3 / weightb=1 / open_gop=0 / weightp=2 / keyint=240 / keyint_min=23 / scenecut=40 / intra_refresh=0 / rc=2pass / mbtree=0 / bitrate=2898 / ratetol=1.0 / qcomp=0.60 / qpmin=0 / qpmax=69 / qpstep=4 / cplxblur=20.0 / qblur=0.5 / ip_ratio=1.40 / pb_ratio=1.30 / aq=2:0.70
Default : Да
Forced : Нет
Аудио #1
Идентификатор : 2
Формат : AC-3
Формат/Информация : Audio Coding 3
Расширение режима : CM (complete main)
Параметр Endianness формата : Big
Идентификатор кодека : A_AC3
Продолжительность : 1 ч. 34 м.
Вид битрейта : Постоянный
Битрейт : 384 Кбит/сек
Каналы : 6 каналов
Расположение каналов : Front: L C R, Side: L R, LFE
Частота : 48,0 КГц
Битовая глубина : 16 бит
Метод сжатия : С потерями
Задержка видео : 24 мс.
Размер потока : 261 Мбайт (11%)
Заголовок : Профессиональный двухголосый (6 каналов)
Язык : Russian
Default : Нет
Forced : Нет
Аудио #2
Идентификатор : 3
Формат : AC-3
Формат/Информация : Audio Coding 3
Расширение режима : CM (complete main)
Параметр Endianness формата : Big
Идентификатор кодека : A_AC3
Продолжительность : 1 ч. 34 м.
Вид битрейта : Постоянный
Битрейт : 128 Кбит/сек
Каналы : 2 канала
Расположение каналов : Front: L R
Частота : 48,0 КГц
Битовая глубина : 16 бит
Метод сжатия : С потерями
Размер потока : 86,9 Мбайт (4%)
Заголовок : Профессиональный двухголосый (2 канала)
Язык : Russian
Default : Нет
Forced : Нет
Аудио #3
Идентификатор : 4
Формат : AC-3
Формат/Информация : Audio Coding 3
Расширение режима : CM (complete main)
Параметр Endianness формата : Big
Идентификатор кодека : A_AC3
Продолжительность : 1 ч. 34 м.
Вид битрейта : Постоянный
Битрейт : 192 Кбит/сек
Каналы : 2 канала
Расположение каналов : Front: L R
Частота : 48,0 КГц
Битовая глубина : 16 бит
Метод сжатия : С потерями
Размер потока : 130 Мбайт (5%)
Заголовок : оригинал
Язык : English
Default : Нет
Forced : Нет
Текст
Идентификатор : 5
Формат : UTF-8
Идентификатор кодека : S_TEXT/UTF8
Идентификатор кодека/Информация : UTF-8 Plain Text
Язык : English
Default : Нет
Forced : Нет
Меню
00:00:00.000 : en:Chapter 1
00:03:10.000 : en:Chapter 2
00:11:35.000 : en:Chapter 3
00:17:41.000 : en:Chapter 4
00:25:06.000 : en:Chapter 5
00:34:03.000 : en:Chapter 6
00:39:38.000 : en:Chapter 7
00:49:11.000 : en:Chapter 8
00:57:43.000 : en:Chapter 9
01:03:39.000 : en:Chapter 10
01:10:42.000 : en:Chapter 11
01:20:29.000 : en:Chapter 12
01:30:49.000 : en:Chapter 13
Скриншоты:
[Профиль] [ЛС]
Показать сообщения:    

Текущее время: Сегодня 22:28

Часовой пояс: GMT



Вы не можете начинать темы
Вы не можете отвечать на сообщения
Вы не можете редактировать свои сообщения
Вы не можете удалять свои сообщения
Вы не можете голосовать в опросах
Вы не можете прикреплять файлы к сообщениям
Вы не можете скачивать файлы