Чернокнижник 2: Армагеддон / Warlock: The Armageddon (1993) WEB-DL 720p | D, A

 
Автор Сообщение

sergej644 ®

Пол:

Стаж: 4 года 11 месяцев

Сообщений: 6040

Откуда: Soviet Union



Награды: Нет

Торрент-статистика

Создавать темы 13-Фев-2015 18:08

[Цитировать]

Информация о фильме
Название: Чернокнижник 2: Армагеддон
Оригинальное название: Warlock: The Armageddon
Год выхода: 1993
Жанр: Ужасы, мистика
Режиссер: Энтони Хикокс
В ролях: Джулиан Сэндс, Крис Янг, Пола Маршалл, Джоанна Пакула, Стив Кэхэн, Р.Г. Армстронг, Чарльз Хэллахан, Брюс Гловер, Крэйг Хёрли, Дэвис Гейнс, Ребекка Стрит, Доун Энн Биллингс, Зак Гэллиган, Рен Т. Браун, Гэри Сервантес, Михали 'Мишу' Месзарос, Ричард Зобель, Мишель Моффетт, Джинн Мори, Лоуренс Морторфф, Ферди Мэйн, Энтони Хикокс, Брент Болтхаус, Джастин Кэроу, Джозеф Бернард, Джордж «Бак» Флауэр, Шерил Мэри Льюис
О фильме:
Оказывается, где-то в американском захолустье еще живут потомки друидов. Это обычные люди, которые большую часть времени проводят за своими повседневными занятиями, воспитывают детей, отдыхают. Но когда наступает назначенный час, только они могут предотвратить появление в этом мире сына Сатаны. А он рождается раз в несколько столетий во время затмения луны. Чтобы уничтожить его, друидам приходится жертвовать собственными жизнями. Когда же они гибнут, им на смену приходят их дети, наделенные сверхъестественными способностями. Колдун возвращается в наше время. Теперь он охотится за волшебными камнями, которые открывают врата ада и выпускают всех «тварей» в наш мир. Все складывается для белокурого чернокнижника хорошо, пока он не сталкивается с друидами, Самантой и Кенни…Очень динамичная лента. Главной притягательной силой является великолепный Джулиан Сэндс. Захватывающий сюжет, впечатляющие компьютерные эффекты говорят за то, что перед нами удачное продолжение первого фильма.

Страна: США
Студия: Trimark Pictures, Tapestry Films
Продолжительность: 01:38:08
Перевод#1: Профессиональный (полное дублирование) Хлопушка
Перевод#2: Авторский (одноголосый закадровый) Леонид Володарский
Файл
Формат: H.264
Качество: WEB-DL 720p
Видео: MPEG-4 AVC, 1280x716, 3969 Кбит/с, 23.976 кадр/с
Аудио#1: Русский (48 kHz, AC3, 2 ch, 192 Кбит/с)
Аудио#2: Русский (48 kHz, AC3, 2 ch, 192 Кбит/с)
Аудио#3: Английский (48 kHz, AAC, 2 ch, ~1510.00 kbps)
Субтитры: Русские, английские

MI

General
Unique ID : 222502897478073812460178013373534860980 (0xA7647FD1E6D09CE189ADE1699B0076B4)
Complete name : C:UsersпкDesktopWarlock II - The Armageddon WEB-DL (720p).mkv
Format : Matroska
Format version : Version 4 / Version 2
File size : 3.16 GiB
Duration : 1h 38mn
Overall bit rate : 4 610 Kbps
Encoded date : UTC 2014-11-05 12:48:00
Writing application : mkvmerge v7.3.0 ('Nouages') 64bit built on Oct 22 2014 18:53:34
Writing library : libebml v1.3.0 + libmatroska v1.4.1
_STATISTICS_WRITING_APP : mkvmerge v7.3.0 ('Nouages') 64bit built on Oct 22 2014 18:53:34
_STATISTICS_WRITING_DATE_UTC : 2014-11-05 12:48:00
_STATISTICS_TAGS : BPS DURATION NUMBER_OF_FRAMES NUMBER_OF_BYTES
DURATION : 01:38:08.096000000
NUMBER_OF_FRAMES : 184003
NUMBER_OF_BYTES : 141314304
Video
ID : 1
Format : AVC
Format/Info : Advanced Video Codec
Format profile : High@L3.1
Format settings, CABAC : No
Format settings, ReFrames : 2 frames
Codec ID : V_MPEG4/ISO/AVC
Duration : 1h 38mn
Width : 1 280 pixels
Height : 716 pixels
Display aspect ratio : 16:9
Frame rate mode : Constant
Frame rate : 23.976 fps
Color space : YUV
Chroma subsampling : 4:2:0
Bit depth : 8 bits
Scan type : Progressive
Language : English
Default : Yes
Forced : No
Color primaries : BT.709
Transfer characteristics : BT.709
Matrix coefficients : BT.709
Audio #1
ID : 2
Format : AC-3
Format/Info : Audio Coding 3
Mode extension : CM (complete main)
Format settings, Endianness : Big
Codec ID : A_AC3
Duration : 1h 38mn
Bit rate mode : Constant
Bit rate : 192 Kbps
Channel(s) : 2 channels
Channel positions : Front: L R
Sampling rate : 48.0 KHz
Bit depth : 16 bits
Compression mode : Lossy
Stream size : 135 MiB (4%)
Title : Хлопушка
Language : Russian
Default : Yes
Forced : No
Audio #2
ID : 3
Format : AC-3
Format/Info : Audio Coding 3
Mode extension : CM (complete main)
Format settings, Endianness : Big
Codec ID : A_AC3
Duration : 1h 38mn
Bit rate mode : Constant
Bit rate : 192 Kbps
Channel(s) : 2 channels
Channel positions : Front: L R
Sampling rate : 48.0 KHz
Bit depth : 16 bits
Compression mode : Lossy
Stream size : 135 MiB (4%)
Title : Володарский
Language : Russian
Default : No
Forced : No
Audio #3
ID : 4
Format : AAC
Format/Info : Advanced Audio Codec
Format profile : LC
Codec ID : A_AAC
Duration : 1h 38mn
Channel(s) : 2 channels
Channel positions : Front: L R
Sampling rate : 48.0 KHz
Compression mode : Lossy
Language : English
Default : No
Forced : No
Text #1
ID : 5
Format : UTF-8
Codec ID : S_TEXT/UTF8
Codec ID/Info : UTF-8 Plain Text
Language : Russian
Default : No
Forced : No
Text #2
ID : 6
Format : UTF-8
Codec ID : S_TEXT/UTF8
Codec ID/Info : UTF-8 Plain Text
Language : English
Default : No
Forced : No
Menu
00:00:00.000 : en:Chapter 1
00:05:58.000 : en:Chapter 2
00:14:45.000 : en:Chapter 3
00:22:41.000 : en:Chapter 4
00:32:37.000 : en:Chapter 5
00:42:07.000 : en:Chapter 6
00:52:57.000 : en:Chapter 7
01:01:51.000 : en:Chapter 8
01:10:01.000 : en:Chapter 9
01:17:09.000 : en:Chapter 10
01:25:39.000 : en:Chapter 11
01:33:52.000 : en:Chapter 12

Скриншоты

[Профиль] [ЛС]
Показать сообщения:    

Текущее время: Сегодня 02:44

Часовой пояс: GMT



Вы не можете начинать темы
Вы не можете отвечать на сообщения
Вы не можете редактировать свои сообщения
Вы не можете удалять свои сообщения
Вы не можете голосовать в опросах
Вы не можете прикреплять файлы к сообщениям
Вы не можете скачивать файлы