Чернобыль. Зона отчуждения [01х01-06 из 08] (2014) WEB-DLRip-AVC

 
Автор Сообщение

Белочка ®

Пол:

Стаж: 5 лет 1 месяц

Сообщений: 2089



Награды: 1 (Подробнее)

Girls (Количество: 1)
Торрент-статистика

Создавать темы 22-Окт-2014 21:57

[Цитировать]

Страна: Россия
Жанр: триллер
Год выпуска: 2014
Продолжительность: 00:53:36-Перевод: Не требуется
Режиссер: Андерс Банке
В ролях:

Кристина Казинская (Аня), Анвар Халилулаев (Гоша), Сергей Романович (Леша), Евгений Стычкин (Костенко), Валерия Дмитриева (Настя), Константин Давыдов (Паша), Илья Щербинин (подкастер), Николай Иванов (отец Ани), Дарья Лузина (мать Ани), Евгения Каверау (Лена, сестра Ани), Сергей Уст (лейтенант), Олег Кривенко (Скрыпник)-Описание: Пятеро молодых людей прыгают в старую «Волгу» и отправляются на поиски вора, часом ранее укравшего из квартиры родителей главного героя восемь миллионов рублей. Грабитель - обычный московский айтишник, - вместо того чтобы залечь на дно, тут же записывает видеоотчет, в котором сообщает, что финальная точка его путешествия - Чернобыльская АЭС и город Припять.- -Качество: WEB-DLRip-AVC
Контейнер: MKV
Видео: AVC, 720x400 (16:9), 1700 kbps, 25 fps, 0,236 bpp
Аудио: русский / AC3 / 2.0 / 48 kHz / 192 kbps / 16 bit || -

Описание серий

1-я серия - "Сон, деньги и Чернобыль"
Родители Паши уезжают в отпуск, и он закатывает в квартире грандиозную вечеринку, даже не догадываясь, что завтра ему придется отправиться в самое отчаянное путешествие в его жизни - в Чернобыль, город-призрак...

Скриншоты

Media Info

General
Unique ID : 251431562879343197392638102196059415203 (0xBD27F524B4C43366B181E53777C4A2A3)
Complete name : C:my_ripChernobil.2014.WEBDLRip-AVC.by.Дядя_Лёша1_seria.mkv
Format : Matroska
Format version : Version 4 / Version 2
File size : 726 MiB
Duration : 53mn 36s
Overall bit rate : 1 894 Kbps
Encoded date : UTC 2014-10-15 19:04:31
Writing application : mkvmerge v7.1.0 ('Good Love') 64bit built on Jul 27 2014 13:06:55
Writing library : libebml v1.3.0 + libmatroska v1.4.1
DURATION : 00:53:36.896000000
NUMBER_OF_FRAMES : 100528
NUMBER_OF_BYTES : 77205504
_STATISTICS_WRITING_APP : mkvmerge v7.1.0 ('Good Love') 64bit built on Jul 27 2014 13:06:55
_STATISTICS_WRITING_DATE_UTC : 2014-10-15 19:04:31
_STATISTICS_TAGS : BPS DURATION NUMBER_OF_FRAMES NUMBER_OF_BYTES
Attachment : Yes
Video
ID : 1
Format : AVC
Format/Info : Advanced Video Codec
Format profile : High@L4.1
Format settings, CABAC : Yes
Format settings, ReFrames : 4 frames
Codec ID : V_MPEG4/ISO/AVC
Duration : 53mn 36s
Bit rate : 1 700 Kbps
Width : 720 pixels
Height : 400 pixels
Display aspect ratio : 16:9
Frame rate : 25.000 fps
Color space : YUV
Chroma subsampling : 4:2:0
Bit depth : 8 bits
Scan type : Progressive
Bits/(Pixel*Frame) : 0.236
Stream size : 638 MiB (88%)
Writing library : x264 core 142 r2479 dd79a61
Encoding settings : cabac=1 / ref=4 / deblock=1:-2:-3 / analyse=0x3:0x113 / me=umh / subme=11 / psy=1 / psy_rd=1.00:0.15 / mixed_ref=1 / me_range=48 / chroma_me=1 / trellis=2 / 8x8dct=1 / cqm=0 / deadzone=21,11 / fast_pskip=0 / chroma_qp_offset=-3 / threads=3 / lookahead_threads=1 / sliced_threads=0 / nr=0 / decimate=0 / interlaced=0 / bluray_compat=0 / constrained_intra=0 / bframes=7 / b_pyramid=2 / b_adapt=2 / b_bias=0 / direct=3 / weightb=1 / open_gop=0 / weightp=2 / keyint=240 / keyint_min=24 / scenecut=40 / intra_refresh=0 / rc_lookahead=60 / rc=2pass / mbtree=0 / bitrate=1700 / ratetol=1.0 / qcomp=0.60 / qpmin=0 / qpmax=69 / qpstep=4 / cplxblur=20.0 / qblur=0.5 / vbv_maxrate=60000 / vbv_bufsize=50000 / nal_hrd=none / filler=0 / ip_ratio=1.40 / pb_ratio=1.30 / aq=1:0.80
Default : Yes
Forced : No
Audio
ID : 2
Format : AC-3
Format/Info : Audio Coding 3
Mode extension : CM (complete main)
Codec ID : A_AC3
Duration : 53mn 36s
Bit rate mode : Constant
Bit rate : 192 Kbps
Channel(s) : 2 channels
Channel positions : Front: L R
Sampling rate : 48.0 KHz
Bit depth : 16 bits
Compression mode : Lossy
Stream size : 73.6 MiB (10%)
Title : Rus original
Language : Russian
Default : Yes
Forced : No
[Профиль] [ЛС]
Показать сообщения:    

Текущее время: Сегодня 18:20

Часовой пояс: GMT



Вы не можете начинать темы
Вы не можете отвечать на сообщения
Вы не можете редактировать свои сообщения
Вы не можете удалять свои сообщения
Вы не можете голосовать в опросах
Вы не можете прикреплять файлы к сообщениям
Вы не можете скачивать файлы