Черная Пятница / Компромат / Black Friday / The Kidnapping (Артур Аллан Сейдельман / Arthur Allan Seidelman) [2007, США, Драма, триллер, DVDRip] MVO

 
Автор Сообщение

painkiller ®

Стаж: 2 года 3 месяца

Сообщений: 582



Награды: Нет

Торрент-статистика

Создавать темы 15-Авг-2014 01:06

[Цитировать]

Черная Пятница / Компромат / Black Friday / The Kidnapping-«Как далеко может она зайти, чтобы спасти ее дочь?»- Страна: США
Жанр: Драма, триллер
Год выпуска: 2007
Продолжительность: 01:21:51
Перевод: Профессиональный (многоголосый закадровый)
Cубтитры: нет
Режиссер: Артур Аллан Сейдельман / Arthur Allan Seidelman
В ролях: Эми Карлсон, Джадд Нельсон, Томас Йен Гриффит, Дарси Роуз Бернс, Шон Макгоун, Бесс Мейер, Ивэн Арнольд
Описание: Этот обычный день не предвещал ничего необычного. Утром мама отправила дочку в школу и поехала на работу, в банк. Вечером она получает конверт с фотографиями своего ребенка и анонимным письмом о том, что девочка украдена. Похитители требуют, чтобы мать вскрыла одну банковскую ячейку и передала им ее содержимое. Только так она сможет получить свое дитя обратно. Женщина, понятное дело, ради дочери согласна на все. Открыв нужную ячейку, она обнаруживает карту памяти, на которой хранится видеозапись, компрометирующая сотрудников прокуратуры…
Сэмпл: http://multi-up.com/976576
Автор: Thomas Ian Griffith
Исходник: DVD5
Качество видео: DVDRip
Формат видео: AVI
Видео: 640x480 (1.33:1), 25 fps, XviD build 50 ~1066 kbps avg, 0.14 bit/pixel
Аудио: 48 kHz, AC3 Dolby Digital, 2/0 (L,R) ch, ~192 kbps

MediaInfo

Общее
Полное имя : C:\Users\к\Desktop\фильмы\кино\Kompromat.2007.DVDRip.XviD.AC3.avi
Формат : AVI
Формат/Информация : Audio Video Interleave
Размер файла : 743 Мбайт
Продолжительность : 1 ч. 21 м.
Общий поток : 1268 Кбит/сек
Программа кодирования : VirtualDubMod 1.5.10.3 | (build 2550/release)
Библиотека кодирования : VirtualDubMod build 2550/release
Видео
Идентификатор : 0
Формат : MPEG-4 Visual
Профиль формата : Advanced Simple@L5
Параметр BVOP формата : 2
Параметр QPel формата : Нет
Параметр GMC формата : Без точки перехода
Параметр матрицы формата : Default (H.263)
Идентификатор кодека : XVID
Идентификатор кодека/Подсказка : XviD
Продолжительность : 1 ч. 21 м.
Битрейт : 1067 Кбит/сек
Ширина : 640 пикселей
Высота : 480 пикселей
Соотношение сторон : 4:3
Частота кадров : 25,000 кадров/сек
Цветовое пространство : YUV
Субдискретизация насыщенности : 4:2:0
Битовая глубина : 8 бит
Тип развёртки : Прогрессивная
Метод сжатия : С потерями
Бит/(Пиксели*Кадры) : 0.139
Размер потока : 625 Мбайт (84%)
Библиотека кодирования : XviD 1.2.1 (UTC 2008-12-04)
Аудио
Идентификатор : 1
Формат : AC-3
Формат/Информация : Audio Coding 3
Расширение режима : CM (complete main)
Параметр Endianness формата : Big
Идентификатор кодека : 2000
Продолжительность : 1 ч. 21 м.
Вид битрейта : Постоянный
Битрейт : 192 Кбит/сек
Каналы : 2 канала
Расположение каналов : Front: L R
Частота : 48,0 КГц
Битовая глубина : 16 бит
Метод сжатия : С потерями
Размер потока : 112 Мбайт (15%)
Выравнивание : Разделение по промежуткам
Продолжительность промежутка : 40 мс. (1,00 видеокадр)
Время предзагрузки промежутка : 500 мс.

Скриншот c названием фильма

Скриншоты

[Профиль] [ЛС]

Создавать темы 06-Авг-2015 23:13 (спустя 11 месяцев 22 дня)

Топик был перенесен из форума Фильмы до 2014 года в форум Фильмы до 2012 года
sergej644
 
Кто просматривает тему:

Форум Тема Автор Размер
Action Black Mesa : Source (Full 2015 version) / Черная Меза [P] [RUS/ENG / RUS/ENG] (2015) (2.0) TorrentFilm 6.19 GB
Фантастика и фэнтези Белянин Андрей, Черная Галина - Детектив из Мокрых Псов 3. Отель «У призрака» (2015) MP3 Swager 419 MB
Зарубежные мультсериалы Битлджус / Beetlejuice / 1-4 сезоны / серии: s1e01-20 из 20 / s2e01-11 из 13 / s3e01-11 из 11 / s4e30-65 из 65 (Робин Бадд / Robin Budd) [1989 г., Мультсериал, чёрная комедия, приключения, DVB] ТНТ Russian Mafia 82.72 GB
Фильмы (HD Rips | 720p, 1080p) Вдребезги (Роман Каримов) [2011, Россия, черная комедия, HDTVRip 1080p] Sub Eng + Original Rus TorrentFilm 12.65 GB
Фильмы 2009 года Выигрышный билет / Ticket gagnant (Жюльен Вейль / Julien Weill) [2009, Франция, черная комедия, DVB] Original (Fre) + Sub (rus) TorrentFilm 1.72 GB
Фильмы 2011 года Десять минут до полудня / Ten ‘til Noon (Скотт Сторм / Scott Storm) [2006, США, триллер, детектив, чёрная комедия, DVDRip] DVO TorrentFilm 1.37 GB
Фильмы 2014 года Дорогая, похоже, я тебя убил / Kochanie, chyba cię zabiłem (Куба Несьчеров / Kuba Nieścierow) [2014, Польша, черная комедия, DVDRip] Sub Rus (Professor) + Original Pol painkiller 1.56 GB
Фильмы 2010 года Зараза / The Taint (Дрю Болдак / Drew Bolduc) [2010, США, Трэш, чёрная комедия, DVDRip] VO (ssvss) + Sub Eng + Original Eng TorrentFilm 1.46 GB
Показать сообщения:    

Текущее время: Сегодня 23:32

Часовой пояс: GMT



Вы не можете начинать темы
Вы не можете отвечать на сообщения
Вы не можете редактировать свои сообщения
Вы не можете удалять свои сообщения
Вы не можете голосовать в опросах
Вы не можете прикреплять файлы к сообщениям
Вы не можете скачивать файлы