Черная месса / Black Mass (2015) BDRip 1080p | Лицензия

 
Автор Сообщение

достали все ®

Пол:

Стаж: 1 год 8 месяцев

Сообщений: 6515



Награды: 12 (Подробнее)

Mega Releaser 1 (Количество: 1) Mega Seeder 5 (Количество: 1) Mega Releaser 2 (Количество: 1)
Торрент-статистика

Создавать темы 27-Фев-2016 04:20

[Цитировать]

Информация о фильме
Название: Черная месса
Оригинальное название: Black Mass
Год выхода: 2015
Жанр: драма, криминал, биография
Режиссер: Скотт Купер
В ролях: Джонни Депп, Джоэл Эдгертон, Бенедикт Камбербэтч, Кевин Бейкон, Джесси Племонс, Питер Сарсгаард, Кори Столл, Дакота Джонсон, Рори Кокрейн, Дэвид Харбор
О фильме: Картина расскажет об Уайти Балджере, знаменитом бостонском гангстере, который 16 лет находился в бегах и был арестован в июне 2011 года в Санта-Монике. Балджер, которому уже за 80, обвинялся в рэкете, был замешан в 19 убийствах и в то же время работал информатором на ФБР. Чтобы не попасть за решетку, он исчез в 1995 году и 16 лет успешно скрывался от правосудия.

Выпущено: Warner Bros.
Продолжительность: 02:02:36
Перевод: Дублированный (лицензия)
Файл
Кодек: x264
Качество: BDRip (источник: Blu-ray Disc)
Видео: 1920x800 (2,40:1), 23.976 fps, 7780 kbps
Аудио #1: AC-3, 6 ch, 640 kbps (Rus)
Аудио #2: AC-3, 6 ch, 640 kbps (Eng)
Субтитры: Русские (форс,полные), Английские
Скачать: сэмпл
Скриншоты

MI

General
Unique ID : 233561315007800385355695808244476531926 (0xAFB645E61B4AFA7FB2F4A196921BD4D6)
Complete name : Z:Black.Mass.2015.BDRip.1080p.Rus.Eng.mkv
Format : Matroska
Format version : Version 2
File size : 7.76 GiB
Duration : 2h 2mn
Overall bit rate : 9 057 Kbps
Movie name : Черная месса / Black Mass (2015)
Encoded date : UTC 2016-02-26 23:11:12
Writing application : mkvmerge v5.8.0 ('No Sleep / Pillow') built on Sep 2 2012 15:37:04
Writing library : libebml v1.2.3 + libmatroska v1.3.0
Attachements : cover.png / logfile.log
Video
ID : 1
Format : AVC
Format/Info : Advanced Video Codec
Format profile : High@L4.1
Format settings, CABAC : Yes
Format settings, ReFrames : 5 frames
Codec ID : V_MPEG4/ISO/AVC
Duration : 2h 2mn
Bit rate : 7 780 Kbps
Width : 1 920 pixels
Height : 800 pixels
Display aspect ratio : 2.40:1
Frame rate mode : Constant
Frame rate : 23.976 fps
Color space : YUV
Chroma subsampling : 4:2:0
Bit depth : 8 bits
Scan type : Progressive
Bits/(Pixel*Frame) : 0.211
Stream size : 6.51 GiB (84%)
Title : Черная месса / Black Mass (2015)
Writing library : x264 core 148 r2665 a01e339
Encoding settings : cabac=1 / ref=5 / deblock=1:-3:-3 / analyse=0x3:0x133 / me=umh / subme=11 / psy=1 / psy_rd=1.00:0.00 / mixed_ref=1 / me_range=32 / chroma_me=1 / trellis=2 / 8x8dct=1 / cqm=0 / deadzone=21,11 / fast_pskip=0 / chroma_qp_offset=-2 / threads=12 / lookahead_threads=3 / sliced_threads=0 / nr=0 / decimate=0 / interlaced=0 / bluray_compat=0 / constrained_intra=0 / bframes=10 / b_pyramid=2 / b_adapt=2 / b_bias=0 / direct=3 / weightb=1 / open_gop=0 / weightp=2 / keyint=240 / keyint_min=23 / scenecut=40 / intra_refresh=0 / rc=2pass / mbtree=0 / bitrate=7780 / ratetol=1.0 / qcomp=0.60 / qpmin=0 / qpmax=69 / qpstep=4 / cplxblur=20.0 / qblur=0.5 / ip_ratio=1.40 / pb_ratio=1.30 / aq=1:0.70
Language : English
Default : Yes
Forced : No
Audio #1
ID : 2
Format : AC-3
Format/Info : Audio Coding 3
Mode extension : CM (complete main)
Format settings, Endianness : Big
Codec ID : A_AC3
Duration : 2h 2mn
Bit rate mode : Constant
Bit rate : 640 Kbps
Channel(s) : 6 channels
Channel positions : Front: L C R, Side: L R, LFE
Sampling rate : 48.0 KHz
Bit depth : 16 bits
Compression mode : Lossy
Stream size : 561 MiB (7%)
Title : Дубляж, Blu-ray CEE
Language : Russian
Default : Yes
Forced : No
Audio #2
ID : 3
Format : AC-3
Format/Info : Audio Coding 3
Mode extension : CM (complete main)
Format settings, Endianness : Big
Codec ID : A_AC3
Duration : 2h 2mn
Bit rate mode : Constant
Bit rate : 640 Kbps
Channel(s) : 6 channels
Channel positions : Front: L C R, Side: L R, LFE
Sampling rate : 48.0 KHz
Bit depth : 16 bits
Compression mode : Lossy
Stream size : 561 MiB (7%)
Title : English
Language : English
Default : No
Forced : No
Text #1
ID : 4
Format : UTF-8
Codec ID : S_TEXT/UTF8
Codec ID/Info : UTF-8 Plain Text
Title : Russian (Forced)
Language : Russian
Default : Yes
Forced : No
Text #2
ID : 5
Format : UTF-8
Codec ID : S_TEXT/UTF8
Codec ID/Info : UTF-8 Plain Text
Title : Russian
Language : Russian
Default : No
Forced : No
Text #3
ID : 6
Format : UTF-8
Codec ID : S_TEXT/UTF8
Codec ID/Info : UTF-8 Plain Text
Title : English
Language : English
Default : No
Forced : No
Menu
00:00:00.000 : :Chapter 01
00:09:44.292 : :Chapter 02
00:18:27.523 : :Chapter 03
00:31:22.130 : :Chapter 04
00:41:49.506 : :Chapter 05
00:51:58.782 : :Chapter 06
00:59:19.889 : :Chapter 07
01:09:17.778 : :Chapter 08
01:19:53.955 : :Chapter 09
01:28:47.905 : :Chapter 10
01:39:44.269 : :Chapter 11
01:52:18.732 : :Chapter 12
01:55:14.407 : :Chapter 13

x264

x264 [info]: frame I:1159 Avg QP:17.60 size:167124
x264 [info]: frame P:31819 Avg QP:18.85 size: 77732
x264 [info]: frame B:143390 Avg QP:21.53 size: 29991
x264 [info]: consecutive B-frames: 1.3% 1.7% 2.2% 11.3% 16.0% 30.0% 14.8% 16.2% 4.0% 1.2% 1.5%
x264 [info]: frame I:1159 Avg QP:16.23 size:204635
x264 [info]: frame P:31819 Avg QP:19.00 size: 78913
x264 [info]: frame B:143390 Avg QP:21.52 size: 30688
x264 [info]: consecutive B-frames: 1.3% 1.7% 2.2% 11.3% 16.0% 30.0% 14.8% 16.2% 4.0% 1.2% 1.5%
[Профиль] [ЛС]
Кто просматривает тему:

Форум Тема Автор Размер
Action Black Mesa : Source (Full 2015 version) / Черная Меза [P] [RUS/ENG / RUS/ENG] (2015) (2.0) TorrentFilm 6.19 GB
Фантастика и фэнтези Белянин Андрей, Черная Галина - Детектив из Мокрых Псов 3. Отель «У призрака» (2015) MP3 Swager 419 MB
Зарубежные мультсериалы Битлджус / Beetlejuice / 1-4 сезоны / серии: s1e01-20 из 20 / s2e01-11 из 13 / s3e01-11 из 11 / s4e30-65 из 65 (Робин Бадд / Robin Budd) [1989 г., Мультсериал, чёрная комедия, приключения, DVB] ТНТ Russian Mafia 82.72 GB
Фильмы (HD Rips | 720p, 1080p) Вдребезги (Роман Каримов) [2011, Россия, черная комедия, HDTVRip 1080p] Sub Eng + Original Rus TorrentFilm 12.65 GB
Фильмы 2009 года Выигрышный билет / Ticket gagnant (Жюльен Вейль / Julien Weill) [2009, Франция, черная комедия, DVB] Original (Fre) + Sub (rus) TorrentFilm 1.72 GB
Фильмы 2011 года Десять минут до полудня / Ten ‘til Noon (Скотт Сторм / Scott Storm) [2006, США, триллер, детектив, чёрная комедия, DVDRip] DVO TorrentFilm 1.37 GB
Фильмы 2014 года Дорогая, похоже, я тебя убил / Kochanie, chyba cię zabiłem (Куба Несьчеров / Kuba Nieścierow) [2014, Польша, черная комедия, DVDRip] Sub Rus (Professor) + Original Pol painkiller 1.56 GB
Фильмы 2010 года Зараза / The Taint (Дрю Болдак / Drew Bolduc) [2010, США, Трэш, чёрная комедия, DVDRip] VO (ssvss) + Sub Eng + Original Eng TorrentFilm 1.46 GB
Показать сообщения:    

Текущее время: Сегодня 20:10

Часовой пояс: GMT



Вы не можете начинать темы
Вы не можете отвечать на сообщения
Вы не можете редактировать свои сообщения
Вы не можете удалять свои сообщения
Вы не можете голосовать в опросах
Вы не можете прикреплять файлы к сообщениям
Вы не можете скачивать файлы