Черная месса / Black Mass (2015) WEB-DL 720p | iTunes

 
Автор Сообщение

BOSS ®

Пол:

Стаж: 2 года 8 месяцев

Сообщений: 5861

Откуда: ODESSA



Награды: 20 (Подробнее)

Top Seeder 2 (Количество: 1) Mega Releaser 3 (Количество: 1) Mega Releaser 2 (Количество: 1)
Торрент-статистика

Создавать темы 16-Янв-2016 06:06

[Цитировать]

Информация о фильме
Название: Черная месса
Оригинальное название: Black Mass
Год выхода: 2015
Жанр: драма, криминал, биография
Режиссер: Скотт Купер
В ролях: Джонни Депп, Джоэл Эдгертон, Бенедикт Камбербэтч, Кевин Бейкон, Джесси Племонс, Питер Сарсгаард, Кори Столл, Дакота Джонсон, Рори Кокрейн, Дэвид Харбор
О фильме: Картина расскажет об Уайти Балджере, знаменитом бостонском гангстере, который 16 лет находился в бегах и был арестован в июне 2011 года в Санта-Монике. Балджер, которому уже за 80, обвинялся в рэкете, был замешан в 19 убийствах и в то же время работал информатором на ФБР. Чтобы не попасть за решетку, он исчез в 1995 году и 16 лет успешно скрывался от правосудия.

Выпущено: США / Cross Creek Pictures, Grisbi Productions, Le, Infinitum Nihil
Продолжительность: 02:02:34
Озвучивание: Дублированное [iTunes]
Файл
Формат: MKV
Видео: 1280x532 at 23.976 fps, MPEG-4 AVC, ~4000 kbps avg
Aудио#1: Russian: 48 kHz, AC3, 3/2 (L,C,R,l,r) + LFE ch, ~384.00 kbps avg |Дубляж, iTunes|
Aудио#2: Ukrainian: 48 kHz, AAC, 2/0 (L,R) ch, ~160.00 kbps avg |Дубляж, iTunes|
Aудио#3: English: 48 kHz, AC3, 3/2 (L,C,R,l,r) + LFE ch, ~384.00 kbps avg
Субтитры: Russian (Forced, iTunes), Russian (iTunes), Ukrainian (Forced, iTunes), English

MI

Format : Matroska
Format version : Version 2
File size : 4.24 GiB
Duration : 2h 2mn
Overall bit rate : 4 948 Kbps
Movie name : Release for HDClub
Encoded date : UTC 2016-01-16 01:10:59
Writing application : mkvmerge v8.3.0 ('Over the Horizon') 64bit
Writing library : libebml v1.3.1 + libmatroska v1.4.2
DURATION : 01:53:45.710000000
NUMBER_OF_FRAMES : 2036
NUMBER_OF_BYTES : 64267
_STATISTICS_WRITING_APP : mkvmerge v8.3.0 ('Over the Horizon') 64bit
_STATISTICS_WRITING_DATE_UTC : 2016-01-16 01:10:59
_STATISTICS_TAGS : BPS DURATION NUMBER_OF_FRAMES NUMBER_OF_BYTES
Video
ID : 1
Format : AVC
Format/Info : Advanced Video Codec
Format profile : Main@L3.1
Format settings, CABAC : No
Format settings, ReFrames : 2 frames
Codec ID : V_MPEG4/ISO/AVC
Duration : 2h 2mn
Width : 1 280 pixels
Height : 532 pixels
Display aspect ratio : 2.40:1
Frame rate mode : Constant
Frame rate : 23.976 fps
Color space : YUV
Chroma subsampling : 4:2:0
Bit depth : 8 bits
Scan type : Progressive
Title : Release for HDClub
Language : English
Default : Yes
Forced : No
Color range : Limited
Color primaries : BT.709
Transfer characteristics : BT.709
Matrix coefficients : BT.709
Audio #1
ID : 2
Format : AC-3
Format/Info : Audio Coding 3
Mode extension : CM (complete main)
Format settings, Endianness : Big
Codec ID : A_AC3
Duration : 2h 2mn
Bit rate mode : Constant
Bit rate : 384 Kbps
Channel(s) : 6 channels
Channel positions : Front: L C R, Side: L R, LFE
Sampling rate : 48.0 KHz
Bit depth : 16 bits
Compression mode : Lossy
Stream size : 337 MiB (8%)
Title : DD 5.1 @ 384 kbps - Dub
Language : Russian
Default : Yes
Forced : No
Audio #2
ID : 3
Format : AAC
Format/Info : Advanced Audio Codec
Format profile : LC
Codec ID : A_AAC
Duration : 2h 2mn
Channel(s) : 2 channels
Channel positions : Front: L R
Sampling rate : 44.1 KHz
Compression mode : Lossy
Title : AAC 2.0 @ 160 kbps - Dub
Language : Ukrainian
Default : No
Forced : No
Audio #3
ID : 4
Format : AC-3
Format/Info : Audio Coding 3
Mode extension : CM (complete main)
Format settings, Endianness : Big
Codec ID : A_AC3
Duration : 2h 2mn
Bit rate mode : Constant
Bit rate : 384 Kbps
Channel(s) : 6 channels
Channel positions : Front: L C R, Side: L R, LFE
Sampling rate : 48.0 KHz
Bit depth : 16 bits
Compression mode : Lossy
Stream size : 337 MiB (8%)
Title : DD 5.1 @ 384 kbps - Original
Language : English
Default : No
Forced : No
Text #1
ID : 5
Format : UTF-8
Codec ID : S_TEXT/UTF8
Codec ID/Info : UTF-8 Plain Text
Title : forced
Language : Russian
Default : Yes
Forced : No
Text #2
ID : 6
Format : UTF-8
Codec ID : S_TEXT/UTF8
Codec ID/Info : UTF-8 Plain Text
Title : full
Language : Russian
Default : No
Forced : No
Text #3
ID : 7
Format : UTF-8
Codec ID : S_TEXT/UTF8
Codec ID/Info : UTF-8 Plain Text
Title : forced
Language : Ukrainian
Default : No
Forced : No
Text #4
ID : 8
Format : UTF-8
Codec ID : S_TEXT/UTF8
Codec ID/Info : UTF-8 Plain Text
Language : English
Default : No
Forced : No
Menu
00:00:00.000 : en:1
00:09:44.000 : en:2
00:18:27.000 : en:3
00:28:49.000 : en:4
00:41:49.000 : en:5
00:51:58.000 : en:6
00:59:19.000 : en:7
01:09:17.000 : en:8
01:19:53.000 : en:9
01:28:47.000 : en:10
01:39:44.000 : en:11
01:52:18.000 : en:12
01:55:11.000 : en:13

Скриншоты

Релиз:


[Профиль] [ЛС]
Показать сообщения:    

Текущее время: Сегодня 21:08

Часовой пояс: GMT



Вы не можете начинать темы
Вы не можете отвечать на сообщения
Вы не можете редактировать свои сообщения
Вы не можете удалять свои сообщения
Вы не можете голосовать в опросах
Вы не можете прикреплять файлы к сообщениям
Вы не можете скачивать файлы