Черная месса / Black Mass (Скотт Купер / Scott Cooper) [2015, США, драма, криминал, биография, WEBRip] DVO

 
Автор Сообщение

TorrentFilm ®

Пол:

Стаж: 2 года

Сообщений: 7741



Награды: Нет

Торрент-статистика

Создавать темы 08-Дек-2015 00:10

[Цитировать]

Черная месса / Black Mass
Страна: США
Жанр: драма, криминал, биография
Год выпуска: 2015
Продолжительность: 02:02:32
Перевод: Любительский (двухголосый закадровый) [Sunny-Films]
Cубтитры: Китайские
Режиссер: Скотт Купер / Scott Cooper
В ролях: Джонни Депп, Джоэл Эдгертон, Бенедикт Камбербэтч, Кевин Бейкон, Джесси Племонс, Питер Сарсгаард, Кори Столл, Дакота Джонсон, Рори Кокрейн, Дэвид Харбор...
Описание: Картина расскажет об Уайти Булджере, знаменитом бостонском гангстере, который 16 лет находился в бегах и был арестован в июне 2011 года в Санта-Монике. Булджер, которому уже за 80, обвинялся в рэкете, был замешан в 19 убийствах и в то же время работал информатором на ФБР. Чтобы не попасть за решетку, он исчез в 1995 году и 16 лет успешно скрывался от правосудия.
Доп. информация: Присутствует логотип в правом верхнем углу.



Качество видео: WEBRip
Формат видео: AVI
Видео: 720x304 (2.37:1), 23.976 fps, XviD build 50 ~1561 kbps avg, 0.30 bit/pixel
Аудио: 48 kHz, MPEG Layer 3, 2 ch, ~128.00 kbps avg
Формат субтитров: hardsub (неотключаемые)

MediaInfo

General
Complete name : C:\Users\Иван Локи\Desktop\Black.Mass.2015.L2.WEBRip.DVO.avi
Format : AVI
Format/Info : Audio Video Interleave
File size : 1.45 GiB
Duration : 2h 2mn
Overall bit rate : 1 699 Kbps
Writing application : VirtualDubMod 1.5.10.3 | www.virtualdub-fr.org || (build 2550/release)
Writing library : VirtualDubMod build 2550/release
Video
ID : 0
Format : MPEG-4 Visual
Format profile : Advanced Simple@L5
Format settings, BVOP : 2
Format settings, QPel : No
Format settings, GMC : No warppoints
Format settings, Matrix : Default (MPEG)
Codec ID : XVID
Codec ID/Hint : XviD
Duration : 2h 2mn
Bit rate : 1 562 Kbps
Width : 720 pixels
Height : 304 pixels
Display aspect ratio : 2.35:1
Frame rate : 23.976 fps
Color space : YUV
Chroma subsampling : 4:2:0
Bit depth : 8 bits
Scan type : Progressive
Compression mode : Lossy
Bits/(Pixel*Frame) : 0.298
Stream size : 1.34 GiB (92%)
Writing library : XviD 1.2.1 (UTC 2008-12-04)
Audio
ID : 1
Format : MPEG Audio
Format version : Version 1
Format profile : Layer 3
Codec ID : 55
Codec ID/Hint : MP3
Duration : 2h 2mn
Bit rate mode : Constant
Bit rate : 128 Kbps
Channel(s) : 2 channels
Sampling rate : 48.0 KHz
Compression mode : Lossy
Stream size : 112 MiB (8%)
Alignment : Aligned on interleaves
Interleave, duration : 42 ms (1.00 video frame)
Interleave, preload duration : 504 ms
Writing library : LAME3.98r
Encoding settings : -m s -V 4 -q 2 -lowpass 17 -b 128

Скриншот c названием фильма

Скриншоты

[Профиль] [ЛС]
Кто просматривает тему:

Форум Тема Автор Размер
Action Black Mesa : Source (Full 2015 version) / Черная Меза [P] [RUS/ENG / RUS/ENG] (2015) (2.0) TorrentFilm 6.19 GB
Фантастика и фэнтези Белянин Андрей, Черная Галина - Детектив из Мокрых Псов 3. Отель «У призрака» (2015) MP3 Swager 419 MB
Зарубежные мультсериалы Битлджус / Beetlejuice / 1-4 сезоны / серии: s1e01-20 из 20 / s2e01-11 из 13 / s3e01-11 из 11 / s4e30-65 из 65 (Робин Бадд / Robin Budd) [1989 г., Мультсериал, чёрная комедия, приключения, DVB] ТНТ Russian Mafia 82.72 GB
Фильмы (HD Rips | 720p, 1080p) Вдребезги (Роман Каримов) [2011, Россия, черная комедия, HDTVRip 1080p] Sub Eng + Original Rus TorrentFilm 12.65 GB
Фильмы 2009 года Выигрышный билет / Ticket gagnant (Жюльен Вейль / Julien Weill) [2009, Франция, черная комедия, DVB] Original (Fre) + Sub (rus) TorrentFilm 1.72 GB
Фильмы 2011 года Десять минут до полудня / Ten ‘til Noon (Скотт Сторм / Scott Storm) [2006, США, триллер, детектив, чёрная комедия, DVDRip] DVO TorrentFilm 1.37 GB
Фильмы 2014 года Дорогая, похоже, я тебя убил / Kochanie, chyba cię zabiłem (Куба Несьчеров / Kuba Nieścierow) [2014, Польша, черная комедия, DVDRip] Sub Rus (Professor) + Original Pol painkiller 1.56 GB
Фильмы 2010 года Зараза / The Taint (Дрю Болдак / Drew Bolduc) [2010, США, Трэш, чёрная комедия, DVDRip] VO (ssvss) + Sub Eng + Original Eng TorrentFilm 1.46 GB
Показать сообщения:    

Текущее время: Сегодня 10:10

Часовой пояс: GMT



Вы не можете начинать темы
Вы не можете отвечать на сообщения
Вы не можете редактировать свои сообщения
Вы не можете удалять свои сообщения
Вы не можете голосовать в опросах
Вы не можете прикреплять файлы к сообщениям
Вы не можете скачивать файлы