Череп и кости / Crossbones [S01] (2014) WEB-DLRip от Generalfilm | NewStudio

 
Автор Сообщение

Белочка ®

Пол:

Стаж: 5 лет 1 месяц

Сообщений: 2089



Награды: 1 (Подробнее)

Girls (Количество: 1)
Торрент-статистика

Создавать темы 04-Ноя-2014 18:48

[Цитировать]

Информация о фильме
Название: Череп и кости
Оригинальное название: Crossbones
Год выхода: 2014
Жанр: Драма, фантастика, ужасы, приключения, экранизация
Режиссер: Дэвид Слэйд, Киаран Доннелли, Дэниэл Эттиэс, Терри Макдонаф, Деран Сарафян, Стив Шилл
В ролях: Джон Малкович, Ричард Койл, Клер Фой, Ясмин Эл Массри, Дэвид Хофлин, Крис Перфетти, Трэйси Айфичор, Питер Стеббингс, Джулиан Сэндс, Эзра Баззингтон, Генри Херфорд, Эмильен Де Фалько, Кевин Райан...
О фильме:
1715 год. Багамский островов Нью-Провиденс. Здесь появилась первая функционирующая демократия в Америке. Дьявольский пират Эдвард Тич, он же Черная Борода, господствует здесь над нацией воров, преступников и злодеев моряков. Чтобы получить контроль над этим устрашающим обществом, опытного убийцу Тома Лоу посылают убить Черную Бороду.

Список серий:

1. Владения дьявола / The Devil's Dominion
2. Ковенант / The Covenant
3. Человек, убивший Чёрную Бороду / The Man Who Killed Blackbeard
4. Антуанетта / Antoinette
5. Возвращение / The Return
6. Дыра в голове / A Hole in the Head
7. Нищий / Beggarman
8. Череп и кости / Crossbones
9. Чёрная борода / Blackbeard
Страна: США
Студия: Universal TV
Продолжительность: 9 x ~ 00:50:00
Перевод: Профессиональный (многоголосый, закадровый) [NewStudio]
Файл
Формат: AVI
Качество: WEB-DLRip
Видео: XviD, 720x400, ~1800 kbps, 23.976 fps
Аудио: AC3, 48.0 KHz, 6 ch, 192 Kbps
Субтитры: Нет
Семпл

Скриншоты

MI

Complete name : E:KinoCherep.I.Kosti.XviD.WEB-DLRip.GeneralfilmCherep.I.Kosti.S01.2014.XviD.WEB-DLRip.NS.GeneralfilmCherep.I.Kosti.s01e01.2014.XviD.WEB-DLRip.NS.Generalfilm.avi
Format : AVI
Format/Info : Audio Video Interleave
File size : 723 MiB
Duration : 50mn 17s
Overall bit rate : 2 010 Kbps
Writing application : VirtualDubMod 1.5.10.3 | www.virtualdub-fr.org || (build 2550/release)
Writing library : VirtualDubMod build 2550/release
Video
ID : 0
Format : MPEG-4 Visual
Format profile : Advanced Simple@L5
Format settings, BVOP : 2
Format settings, QPel : No
Format settings, GMC : No warppoints
Format settings, Matrix : Default (H.263)
Codec ID : XVID
Codec ID/Hint : XviD
Duration : 50mn 17s
Bit rate : 1 809 Kbps
Width : 720 pixels
Height : 400 pixels
Display aspect ratio : 16:9
Frame rate : 23.976 fps
Color space : YUV
Chroma subsampling : 4:2:0
Bit depth : 8 bits
Scan type : Progressive
Compression mode : Lossy
Bits/(Pixel*Frame) : 0.262
Stream size : 651 MiB (90%)
Writing library : XviD 1.2.1 (UTC 2008-12-04)
Audio
ID : 1
Format : AC-3
Format/Info : Audio Coding 3
Mode extension : CM (complete main)
Format settings, Endianness : Big
Codec ID : 2000
Duration : 50mn 17s
Bit rate mode : Constant
Bit rate : 192 Kbps
Channel count : 6 channels
Channel positions : Front: L C R, Side: L R, LFE
Sampling rate : 48.0 KHz
Bit depth : 16 bits
Compression mode : Lossy
Stream size : 69.1 MiB (10%)
Alignment : Split accross interleaves
Interleave, duration : 42 ms (1.00 video frame)
Interleave, preload duration : 500 ms
Релиз от:
[Профиль] [ЛС]
Показать сообщения:    

Текущее время: Сегодня 03:22

Часовой пояс: GMT



Вы не можете начинать темы
Вы не можете отвечать на сообщения
Вы не можете редактировать свои сообщения
Вы не можете удалять свои сообщения
Вы не можете голосовать в опросах
Вы не можете прикреплять файлы к сообщениям
Вы не можете скачивать файлы