Череп и кости / Crossbones [S01] (2014) WEB-DLRip от Generalfilm | КПК | NewStudio

 
Автор Сообщение

Белочка ®

Пол:

Стаж: 5 лет 1 месяц

Сообщений: 2089



Награды: 1 (Подробнее)

Girls (Количество: 1)
Торрент-статистика

Создавать темы 04-Ноя-2014 17:48

[Цитировать]

Информация о фильме
Название: Череп и кости
Оригинальное название: Crossbones
Год выхода: 2014
Жанр: Драма, фантастика, ужасы, приключения, экранизация
Режиссер: Дэвид Слэйд, Киаран Доннелли, Дэниэл Эттиэс, Терри Макдонаф, Деран Сарафян, Стив Шилл
В ролях: Джон Малкович, Ричард Койл, Клер Фой, Ясмин Эл Массри, Дэвид Хофлин, Крис Перфетти, Трэйси Айфичор, Питер Стеббингс, Джулиан Сэндс, Эзра Баззингтон, Генри Херфорд, Эмильен Де Фалько, Кевин Райан...
О фильме:
1715 год. Багамский островов Нью-Провиденс. Здесь появилась первая функционирующая демократия в Америке. Дьявольский пират Эдвард Тич, он же Черная Борода, господствует здесь над нацией воров, преступников и злодеев моряков. Чтобы получить контроль над этим устрашающим обществом, опытного убийцу Тома Лоу посылают убить Черную Бороду.

Список серий:

1. Владения дьявола / The Devil's Dominion
2. Ковенант / The Covenant
3. Человек, убивший Чёрную Бороду / The Man Who Killed Blackbeard
4. Антуанетта / Antoinette
5. Возвращение / The Return
6. Дыра в голове / A Hole in the Head
7. Нищий / Beggarman
8. Череп и кости / Crossbones
9. Чёрная борода / Blackbeard
Страна: США
Студия: Universal TV
Продолжительность: 9 x ~ 00:50:00
Перевод: Профессиональный (многоголосый, закадровый) [NewStudio]
Файл
Формат: MP4
Качество: WEB-DLRip | КПК
Видео: MPEG-4 AVC (x264), 640x360, ~500 kbps, 23.976 fps
Аудио: AAC LC, 48.0 KHz, 2 ch, 128 Kbps
Субтитры: Нет
Семпл

Скриншоты

MI

Complete name : E:KinoCherep.I.Kosti.AVC.WEB-DLRip.KPK.GeneralfilmCherep.I.Kosti.S01.2014.AVC.WEB-DLRip.KPK.NS.GeneralfilmCherep.I.Kosti.s01e01.2014.AVC.WEB-DLRip.KPK.NS.Generalfilm.mp4
Format : MPEG-4
Format profile : Base Media
Codec ID : isom
File size : 227 MiB
Duration : 50mn 17s
Overall bit rate mode : Variable
Overall bit rate : 631 Kbps
Encoded date : UTC 2014-10-28 11:19:24
Tagged date : UTC 2014-10-28 11:19:24
Video
ID : 1
Format : AVC
Format/Info : Advanced Video Codec
Format profile : Baseline@L4.1
Format settings, CABAC : No
Format settings, ReFrames : 6 frames
Codec ID : avc1
Codec ID/Info : Advanced Video Coding
Duration : 50mn 17s
Bit rate : 500 Kbps
Maximum bit rate : 3 070 Kbps
Width : 640 pixels
Height : 360 pixels
Display aspect ratio : 16:9
Frame rate mode : Constant
Frame rate : 23.976 fps
Color space : YUV
Chroma subsampling : 4:2:0
Bit depth : 8 bits
Scan type : Progressive
Bits/(Pixel*Frame) : 0.091
Stream size : 180 MiB (79%)
Writing library : x264 core 125 r2200 999b753
Encoding settings : cabac=0 / ref=6 / deblock=1:-1:-1 / analyse=0x1:0x111 / me=umh / subme=7 / psy=1 / psy_rd=1.00:0.00 / mixed_ref=0 / me_range=16 / chroma_me=1 / trellis=1 / 8x8dct=0 / cqm=0 / deadzone=21,11 / fast_pskip=0 / chroma_qp_offset=-2 / threads=12 / lookahead_threads=2 / sliced_threads=0 / nr=0 / decimate=1 / interlaced=0 / bluray_compat=0 / constrained_intra=0 / bframes=0 / weightp=0 / keyint=250 / keyint_min=23 / scenecut=40 / intra_refresh=0 / rc_lookahead=60 / rc=2pass / mbtree=1 / bitrate=500 / ratetol=1.0 / qcomp=0.60 / qpmin=0 / qpmax=69 / qpstep=4 / cplxblur=20.0 / qblur=0.5 / ip_ratio=1.40 / aq=1:1.00
Encoded date : UTC 2014-10-28 11:19:24
Tagged date : UTC 2014-10-28 11:19:29
Audio
ID : 2
Format : AAC
Format/Info : Advanced Audio Codec
Format profile : LC
Codec ID : 40
Duration : 50mn 17s
Bit rate mode : Variable
Bit rate : 128 Kbps
Maximum bit rate : 144 Kbps
Channel count : 2 channels
Channel positions : Front: L R
Sampling rate : 48.0 KHz
Compression mode : Lossy
Stream size : 46.0 MiB (20%)
Encoded date : UTC 2014-10-28 11:19:28
Tagged date : UTC 2014-10-28 11:19:29
Релиз от:
[Профиль] [ЛС]
Показать сообщения:    

Текущее время: Сегодня 10:33

Часовой пояс: GMT



Вы не можете начинать темы
Вы не можете отвечать на сообщения
Вы не можете редактировать свои сообщения
Вы не можете удалять свои сообщения
Вы не можете голосовать в опросах
Вы не можете прикреплять файлы к сообщениям
Вы не можете скачивать файлы