Черепашки-ниндзя / TMNT (Кевин Манро / Kevin Munroe) [1080p] [2007, мультфильм, боевик, приключения, BDRip]

 
Автор Сообщение

sergej644 ®

Пол:

Стаж: 4 года 11 месяцев

Сообщений: 6041

Откуда: Soviet Union



Награды: Нет

Торрент-статистика

Создавать темы 05-Июл-2014 13:31

[Цитировать]

- Черепашки-ниндзя / TMNTСлоган: «Raising Shell In 2007»

Год выпуска: 2007
Страна: США, Гонконг
Жанр: мультфильм, фэнтези, боевик, драма, комедия, приключения, семейный
Продолжительность: 01:26:51
Перевод: Дублированный
Cубтитры: русские, английские
Навигация по главам: есть
Режиссер: Кевин Манро / Kevin Munroe
Сценарий: Кевин Манро / Kevin Munroe, Питер Лэрд / Peter Laird, Кевин Истмэн / Kevin Eastman
Продюсер: Пол Ванг / Paul Wang, Кайл Кларк / Kyle Clark, Томас К. Грэй / Thomas K. Gray, Гейлен Уокер / Galen Walker, Майкл Дж. Арнольд / Michael J. Arnold
Оператор: Стефен Дж. Ламли / Stephen G. Lumley
Композитор: Клаус Бадельт / Klaus Badelt
В ролях: Нолан Норт (Raphael / Nightwatcher, озвучка), Джеймс Арнольд Тейлор (Leonardo, озвучка), Митчел Уитфилд (Donatello, озвучка), Мики Келли (Michelangelo, озвучка), Мако (Splinter, озвучка), Сара Мишель Геллар (April O'Neil, озвучка), Крис Эванс (Casey, озвучка), Патрик Стюарт (Winters, озвучка), Чжан Цзыи (Karai, озвучка), Лоренс Фишбёрн (рассказчик, озвучка), Кевин Смит (Diner Cook, озвучка), Джон Ди Маджио (Colonel Santino, озвучка)
Дублёры: Андрей Бархударов (Raphael / Nightwatcher), Илья Бледный (Leonardo), Сергей Бурунов (Donatello), Илья Хвостиков (Michelangelo), Никита Прозоровский (Splinter), Наталья Фищук (April O'Neil), Пётр Иващенко (Casey), Ольга Зубкова (Karai), Владимир Вихров (рассказчик)-Бюджет: $34 000 000
Сборы в США: $54 149 098
Сборы в России: $3 139 674
Сборы в мире: $95 009 888
Мировая премьера: 22 марта 2007
Релиз на DVD: 30 апреля 2009, «Мьюзик-Трейд»-Описание: Странные события происходят в Нью-Йорке: некий ученый Марк Уинтерс собирает армию древних монстров с единственной целью - поработить мир. Черепашки необходимы больше, чем когда-либо, но Рафаэль, Донателло и Микеланджело исчезли. Поэтому Леонардо должен восстановить единство команды, чтобы затем спасти город!-Рейтинг
kinopoisk.ru: 6.825 (4 837)
imdb.com: 6.50 (27 587)
MPAA: PG - Рекомендуется присутствие родителей-Благодарность Alien234 за DVD Позитив-мультимедиа-Качество: BDRip
Исходник: TMNT 2007 Blu-ray JPNversion 1080P TRUEHD VC-1 -solipsxu@beAst- (HDStar)
Формат: Matroska
Видеокодек: AVC
Аудиокодек: AC3, DTS
Видео: MPEG-4 AVC Video / 6414 kbps / 1920x800 / 23,976 fps / 2.400:1 / 0,174 bpp / High Profile 4.1
Аудио №1: Russian / DTS Audio / 5.1 / 48 kHz / 755 kbps / 24-bit / Дублированный
Аудио №2: English / DTS Audio / 5.1 / 48 kHz / 1509 kbps / 16-bit
Аудио №3: English / Dolby Digital Audio / 2.0 / 48 kHz / 192 kbps / Commentary by Kevin Munroe
Субтитры №1: Russian
Субтитры №2: English
Субтитры №3: Russian; Commentary by Kevin Munroe
Субтитры №4: English; Commentary by Kevin Munroe
-

Скриншоты

Encode vs. Source vs. TheFighter



-

MI

General
Unique ID : 219097192130773115086448302479278859611 (0xA4D495950CF54CD3B3480A96FFCFE55B)
Complete name : TMNT.2007.1080p.BluRay.Rus.Eng.HDCLUB.mkv
Format : Matroska
File size : 5.38 GiB
Duration : 1h 26mn
Overall bit rate : 8 874 Kbps
Encoded date : UTC 2011-05-02 17:37:56
Writing application : mkvmerge v4.7.0 ('Just Like You Imagined') built on Apr 21 2011 01:13:14
Writing library : libebml v1.2.0 + libmatroska v1.1.0
Cover : Yes / Yes
Video
ID : 1
Format : AVC
Format/Info : Advanced Video Codec
Format profile : High@L4.1
Format settings, CABAC : Yes
Format settings, ReFrames : 5 frames
Codec ID : V_MPEG4/ISO/AVC
Duration : 1h 26mn
Bit rate : 6 420 Kbps
Width : 1 920 pixels
Height : 800 pixels
Display aspect ratio : 2.40:1
Frame rate : 23.976 fps
Color space : YUV
Chroma subsampling : 4:2:0
Bit depth : 8 bits
Scan type : Progressive
Bits/(Pixel*Frame) : 0.174
Stream size : 3.79 GiB (70%)
Title : 1920x800 (2.400:1); 6414 Kbps; 23,976 fps; 0,174 bpp
Writing library : x264 core 115 r1947 b5a8ad7
Encoding settings : cabac=1 / ref=5 / deblock=1:-3:-3 / analyse=0x3:0x133 / me=umh / subme=10 / psy=1 / psy_rd=1.00:0.00 / mixed_ref=1 / me_range=32 / chroma_me=1 / trellis=2 / 8x8dct=1 / cqm=0 / deadzone=21,11 / fast_pskip=0 / chroma_qp_offset=-2 / threads=6 / sliced_threads=0 / nr=0 / decimate=0 / interlaced=0 / bluray_compat=0 / constrained_intra=0 / bframes=6 / b_pyramid=2 / b_adapt=2 / b_bias=0 / direct=3 / weightb=1 / open_gop=0 / weightp=2 / keyint=250 / keyint_min=23 / scenecut=40 / intra_refresh=0 / rc_lookahead=60 / rc=2pass / mbtree=0 / bitrate=6420 / ratetol=1.0 / qcomp=0.60 / qpmin=0 / qpmax=69 / qpstep=4 / cplxblur=20.0 / qblur=0.5 / vbv_maxrate=50000 / vbv_bufsize=62500 / nal_hrd=none / ip_ratio=1.40 / pb_ratio=1.30 / aq=1:1.00
Language : English
Color primaries : BT.709-5, BT.1361, IEC 61966-2-4, SMPTE RP177
Transfer characteristics : BT.709-5, BT.1361
Matrix coefficients : BT.709-5, BT.1361, IEC 61966-2-4 709, SMPTE RP177
Audio #1
ID : 2
Format : DTS
Format/Info : Digital Theater Systems
Codec ID : A_DTS
Duration : 1h 26mn
Bit rate mode : Constant
Bit rate : 755 Kbps
Channel(s) : 6 channels
Channel positions : Front: L C R, Side: L R, LFE
Sampling rate : 48.0 KHz
Bit depth : 24 bits
Compression mode : Lossy
Stream size : 469 MiB (9%)
Title : Дублированный
Language : Russian
Audio #2
ID : 3
Format : DTS
Format/Info : Digital Theater Systems
Codec ID : A_DTS
Duration : 1h 26mn
Bit rate mode : Constant
Bit rate : 1 510 Kbps
Channel(s) : 6 channels
Channel positions : Front: L C R, Side: L R, LFE
Sampling rate : 48.0 KHz
Bit depth : 16 bits
Compression mode : Lossy
Stream size : 938 MiB (17%)
Language : English
Audio #3
ID : 4
Format : AC-3
Format/Info : Audio Coding 3
Format profile : Dolby Digital
Mode extension : CM (complete main)
Codec ID : A_AC3
Duration : 1h 26mn
Bit rate mode : Constant
Bit rate : 192 Kbps
Channel(s) : 2 channels
Channel positions : Front: L R
Sampling rate : 48.0 KHz
Bit depth : 16 bits
Compression mode : Lossy
Stream size : 119 MiB (2%)
Title : Commentary by Kevin Munroe
Language : English
Text #1
ID : 5
Format : UTF-8
Codec ID : S_TEXT/UTF8
Codec ID/Info : UTF-8 Plain Text
Language : Russian
Text #2
ID : 6
Format : UTF-8
Codec ID : S_TEXT/UTF8
Codec ID/Info : UTF-8 Plain Text
Language : English
Text #3
ID : 7
Format : UTF-8
Codec ID : S_TEXT/UTF8
Codec ID/Info : UTF-8 Plain Text
Title : Commentary by Kevin Munroe
Language : Russian
Text #4
ID : 8
Format : UTF-8
Codec ID : S_TEXT/UTF8
Codec ID/Info : UTF-8 Plain Text
Title : Commentary by Kevin Munroe
Language : English
Menu
00:00:00.000 : en:13 Monsters / 13 гигантов
00:04:44.117 : en:Ghost of the Jungle / Призрак джунглей
00:07:39.625 : en:Brotherly Update / Четверо братьев
00:12:47.266 : en:Glory Days Over / Былые времена позади
00:16:30.489 : en:Expectant Mr. Winters / Мистер Уинтерс ждет
00:21:30.622 : en:Asleep and Awake / Время просыпаться
00:25:41.706 : en:Construction Destruction / Черепашки снова в деле
00:32:36.621 : en:No Excuses / Без оправданий
00:36:39.864 : en:Monster Roundup / Почти все в сборе
00:38:19.130 : en:Witnesses / Свидетели
00:42:16.367 : en:Written All Over It / Его имя повсюду
00:47:26.677 : en:Little Fella / Малютка
00:51:46.770 : en:Done Taking Orders / Мне надоели приказы
00:55:46.843 : en:Battling Brothers / Поединок братьев
00:59:03.540 : en:Hiding Over / Хватит прятаться
01:02:15.231 : en:Our Time / Наше время
01:05:24.420 : en:Choosing Sides / Выбор
01:10:21.217 : en:Special Delivery / Особая доставка
01:14:33.802 : en:Creepy Exit / Эффектный уход
01:17:57.339 : en:What's Important / Самое главное
01:19:26.428 : en:End Credits / Финальные титры
-

x264 log

Код:
y4m [info]: 1920x800p 1:1 @ 24000/1001 fps (cfr)
x264 [warning]: --psnr used with psy on: results will be invalid!
x264 [warning]: --tune psnr should be used if attempting to benchmark psnr!
x264 [info]: using SAR=1/1
x264 [info]: using cpu capabilities: MMX2 SSE2Fast SSSE3 FastShuffle SSE4.1 Cache64
x264 [info]: profile High, level 4.1
x264 [info]: frame I:869   Avg QP:12.42  size:187660  PSNR Mean Y:51.56 U:55.42 V:55.20 Avg:52.17 Global:51.26
x264 [info]: frame P:38243 Avg QP:15.76  size: 53387  PSNR Mean Y:50.38 U:56.21 V:56.10 Avg:51.09 Global:49.18
x264 [info]: frame B:85829 Avg QP:16.32  size: 22992  PSNR Mean Y:49.11 U:54.52 V:54.33 Avg:49.82 Global:48.78
x264 [info]: consecutive B-frames:  6.9%  9.1% 18.4% 26.8% 16.5% 21.0%  1.2%
x264 [info]: mb I  I16..4: 10.8% 70.0% 19.3%
x264 [info]: mb P  I16..4:  3.5% 22.0%  2.8%  P16..4: 31.5% 16.2%  4.0%  0.3%  0.2%    skip:19.6%
x264 [info]: mb B  I16..4:  0.7%  3.4%  0.5%  B16..8: 29.6% 11.7%  3.1%  direct: 8.2%  skip:42.9%  L0:37.6% L1:42.5% BI:19.9%
x264 [info]: 8x8 transform intra:76.6% inter:51.9%
x264 [info]: direct mvs  spatial:97.9% temporal:2.1%
x264 [info]: coded y,uvDC,uvAC intra: 79.2% 79.5% 58.2% inter: 24.9% 20.6% 8.8%
x264 [info]: i16 v,h,dc,p: 43% 17%  8% 31%
x264 [info]: i8 v,h,dc,ddl,ddr,vr,hd,vl,hu: 18% 17% 14%  6%  8%  9%  9%  9% 11%
x264 [info]: i4 v,h,dc,ddl,ddr,vr,hd,vl,hu: 20% 15% 12%  6% 11% 10% 10%  7%  8%
x264 [info]: i8c dc,h,v,p: 41% 25% 21% 13%
x264 [info]: Weighted P-Frames: Y:8.6% UV:5.9%
x264 [info]: ref P L0: 63.0% 10.2% 14.3%  6.7%  4.4%  1.3%  0.1%
x264 [info]: ref B L0: 82.6% 13.1%  3.4%  0.9%
x264 [info]: ref B L1: 94.5%  5.5%
x264 [info]: SSIM Mean Y:0.9924933 (21.246db)
x264 [info]: PSNR Mean Y:49.514 U:55.045 V:54.878 Avg:50.229 Global:48.915 kb/s:6414.17
encoded 124941 frames, 2.00 fps, 6414.17 kb/s
--
[Профиль] [ЛС]
Показать сообщения:    

Текущее время: Сегодня 06:06

Часовой пояс: GMT



Вы не можете начинать темы
Вы не можете отвечать на сообщения
Вы не можете редактировать свои сообщения
Вы не можете удалять свои сообщения
Вы не можете голосовать в опросах
Вы не можете прикреплять файлы к сообщениям
Вы не можете скачивать файлы