Чем дальше в лес... / Into the Woods (2014) BDRip 1080p | iTunes

 
Автор Сообщение

BOSS ®

Пол:

Стаж: 2 года 1 месяц

Сообщений: 3718

Откуда: ODESSA



Награды: 20 (Подробнее)

Mega Seeder 5 (Количество: 1) Top Keeper 3 (Количество: 1) Mega Seeder 3 (Количество: 1)
Торрент-статистика

Создавать темы 06-Апр-2015 20:35

[Цитировать]

Информация о фильме
Название: Чем дальше в лес...
Оригинальное название: Into the Woods
Год выхода: 2014
Жанр: мюзикл, фэнтези, комедия, семейный
Режиссер: Роб Маршалл
В ролях: Мэрил Стрип, Эмили Блант, Джеймс Корден, Анна Кендрик, Крис Пайн, Джонни Депп, Дэниэл Хаттлстоун, Кристин Барански, Тэмми Бланчард, Люси Панч
О фильме: Золушка мечтает попасть на бал, Пекарь, когда-то проклятый Ведьмой, и его Жена горюют о том, что у них нет ребенка, Джек хочет, чтобы его корова Беляночка наконец-то дала молоко, его Мать мечтает быть богатой, а Красной Шапочке очень нужен каравай хлеба — гостинец для Бабушки, которая живет в лесу… и, может быть, немного сластей для себя лично.
Наконец, Ведьма, живущая по соседству с Пекарем, мечтает вернуть себе молодость и красоту, которые она утратила по несчастному стечению обстоятельств. Для этого она предлагает Пекарю в обмен на снятие проклятия помочь ей и добыть необходимые составляющие для волшебного напитка: корову, белую, как молоко, плащ, красный как кровь, прядь волос, желтых, как кукуруза, и золотые туфельки…

Страна: США
Студия: Lucamar Productions, Marc Platt Productions, Walt Disney Pictures
Продолжительность: 02:04:43
Перевод: Профессиональный (дублированный) iTunes
Файл
Формат: Matroska
Видео: 1920x804 at 23.976 fps, x264@L4.1, ~11900 kbps avg
Аудио#1: Russian: 48 kHz, AC3, 3/2 (L,C,R,l,r) + LFE ch, ~384.00 kbps avg |Дубляж, iTunes|
Аудио#2: English: 48 kHz, DTS, 3/2 (L,C,R,l,r) + LFE ch, ~1509.00 kbps avg
Аудио#3: English: 48 kHz, AC3, 2/0 (L,R) ch, ~192.00 kbps avg |Commentary|
Субтитры: Russian, English

MI

Общее
Уникальный идентификатор : 190474588478421500784171873044181764580 (0x8F4C12449E769089AF951338E8AB49E4)
Полное имя : Into.the.Woods.2014.1080p.BluRay.x264-HDAccess.mkv
Формат : Matroska
Версия формата : Version 2
Размер файла : 12,4 Гбайт
Продолжительность : 2 ч. 4 м.
Общий поток : 14,3 Мбит/сек
Дата кодирования : UTC 2015-04-06 19:47:40
Программа кодирования : mkvmerge v6.2.0 ('Promised Land') built on Apr 28 2013 12:22:01
Библиотека кодирования : libebml v1.3.0 + libmatroska v1.4.0
_STATISTICS_WRITING_APP : mkvmerge v7.3.0 ('Nouages') 64bit built on Oct 22 2014 18:53:34
_STATISTICS_WRITING_DATE_UTC : 2015-03-13 08:15:22
_STATISTICS_TAGS : BPS DURATION NUMBER_OF_FRAMES NUMBER_OF_BYTES
DURATION : 02:00:24.384000000
NUMBER_OF_FRAMES : 2329
NUMBER_OF_BYTES : 129325
Видео
Идентификатор : 1
Формат : AVC
Формат/Информация : Advanced Video Codec
Профиль формата : High@L4.1
Параметр CABAC формата : Да
Параметр ReFrames формата : 5 кадров
Идентификатор кодека : V_MPEG4/ISO/AVC
Продолжительность : 2 ч. 4 м.
Битрейт : 11,9 Мбит/сек
Ширина : 1920 пикселей
Высота : 804 пикселя
Соотношение сторон : 2,40:1
Режим частоты кадров : Постоянный
Частота кадров : 23,976 кадра/сек
Цветовое пространство : YUV
Субдискретизация насыщенности : 4:2:0
Битовая глубина : 8 бит
Тип развёртки : Прогрессивная
Бит/(Пиксели*Кадры) : 0.322
Размер потока : 10,4 Гбайт (83%)
Библиотека кодирования : x264 core 144 r0+2574 9abcd72 t_mod_Custom [8-bit@all X86_64]
Настройки программы : cabac=1 / ref=5 / deblock=1:-3:-3 / analyse=0x3:0x133 / me=umh / subme=10 / psy=1 / fade_compensate=0.00 / psy_rd=0.95:0.00 / mixed_ref=1 / me_range=48 / chroma_me=1 / trellis=2 / 8x8dct=1 / cqm=0 / deadzone=21,11 / fast_pskip=1 / chroma_qp_offset=-2 / threads=16 / lookahead_threads=2 / sliced_threads=0 / nr=0 / decimate=1 / interlaced=0 / bluray_compat=0 / constrained_intra=0 / fgo=0 / bframes=8 / b_pyramid=2 / b_adapt=2 / b_bias=0 / direct=3 / weightb=1 / open_gop=0 / weightp=2 / keyint=250 / keyint_min=23 / scenecut=40 / intra_refresh=0 / rc_lookahead=150 / rc=crf / mbtree=0 / crf=16.0000 / qcomp=0.65 / qpmin=0:0:0 / qpmax=69:69:69 / qpstep=4 / vbv_maxrate=50000 / vbv_bufsize=62500 / crf_max=0.0 / nal_hrd=none / filler=0 / ip_ratio=1.30 / pb_ratio=1.20 / aq=4:0.80 / aq-sensitivity=10.00 / aq-factor=1.00:1.00:1.00 / aq2=0 / aq3=0
Язык : English
Default : Да
Forced : Нет
_STATISTICS_WRITING_APP : mkvmerge v7.3.0 ('Nouages') 64bit built on Oct 22 2014 18:53:34
_STATISTICS_WRITING_DATE_UTC : 2015-03-13 08:15:22
_STATISTICS_TAGS : BPS DURATION NUMBER_OF_FRAMES NUMBER_OF_BYTES
DURATION : 02:04:45.562000000
NUMBER_OF_FRAMES : 179474
NUMBER_OF_BYTES : 11408266789
Аудио #1
Идентификатор : 2
Формат : AC-3
Формат/Информация : Audio Coding 3
Расширение режима : CM (complete main)
Параметр Endianness формата : Big
Идентификатор кодека : A_AC3
Продолжительность : 2 ч. 4 м.
Вид битрейта : Постоянный
Битрейт : 384 Кбит/сек
Каналы : 6 каналов
Расположение каналов : Front: L C R, Side: L R, LFE
Частота : 48,0 КГц
Битовая глубина : 16 бит
Метод сжатия : С потерями
Размер потока : 343 Мбайт (3%)
Язык : Russian
Default : Да
Forced : Нет
Аудио #2
Идентификатор : 3
Формат : DTS
Формат/Информация : Digital Theater Systems
Режим : 16
Параметр Endianness формата : Big
Идентификатор кодека : A_DTS
Продолжительность : 2 ч. 4 м.
Вид битрейта : Постоянный
Битрейт : 1509 Кбит/сек
Каналы : 6 каналов
Расположение каналов : Front: L C R, Side: L R, LFE
Частота : 48,0 КГц
Битовая глубина : 24 бит
Метод сжатия : С потерями
Размер потока : 1,32 Гбайт (11%)
Язык : English
Default : Нет
Forced : Нет
Аудио #3
Идентификатор : 4
Формат : AC-3
Формат/Информация : Audio Coding 3
Расширение режима : CM (complete main)
Параметр Endianness формата : Big
Идентификатор кодека : A_AC3
Продолжительность : 2 ч. 4 м.
Вид битрейта : Постоянный
Битрейт : 192 Кбит/сек
Каналы : 2 канала
Расположение каналов : Front: L R
Частота : 48,0 КГц
Битовая глубина : 16 бит
Метод сжатия : С потерями
Размер потока : 171 Мбайт (1%)
Заголовок : Commentary
Язык : English
Default : Нет
Forced : Нет
Текст #1
Идентификатор : 5
Формат : UTF-8
Идентификатор кодека : S_TEXT/UTF8
Идентификатор кодека/Информация : UTF-8 Plain Text
Заголовок : Fors
Язык : Russian
Default : Да
Forced : Нет
Текст #2
Идентификатор : 6
Формат : UTF-8
Идентификатор кодека : S_TEXT/UTF8
Идентификатор кодека/Информация : UTF-8 Plain Text
Язык : Russian
Default : Нет
Forced : Нет
Текст #3
Идентификатор : 7
Формат : UTF-8
Идентификатор кодека : S_TEXT/UTF8
Идентификатор кодека/Информация : UTF-8 Plain Text
Заголовок : SDH
Язык : English
Default : Нет
Forced : Нет
Текст #4
Идентификатор : 8
Формат : UTF-8
Идентификатор кодека : S_TEXT/UTF8
Идентификатор кодека/Информация : UTF-8 Plain Text
Язык : English
Default : Нет
Forced : Нет
Текст #5
Идентификатор : 9
Формат : UTF-8
Идентификатор кодека : S_TEXT/UTF8
Идентификатор кодека/Информация : UTF-8 Plain Text
Заголовок : Commentary
Язык : English
Default : Нет
Forced : Нет
Меню
00:00:00.000 : en:00:00:00.000
00:16:24.275 : en:00:16:24.275
00:18:02.164 : en:00:18:02.164
00:21:30.998 : en:00:21:30.998
00:26:37.846 : en:00:26:37.846
00:28:28.415 : en:00:28:28.415
00:30:08.765 : en:00:30:08.765
00:32:50.969 : en:00:32:50.969
00:33:31.885 : en:00:33:31.885
00:37:18.027 : en:00:37:18.027
00:40:44.984 : en:00:40:44.984
00:42:27.128 : en:00:42:27.128
00:46:13.604 : en:00:46:13.604
00:48:53.180 : en:00:48:53.180
00:54:39.109 : en:00:54:39.109
00:57:50.926 : en:00:57:50.926
01:00:02.808 : en:01:00:02.808
01:03:33.977 : en:01:03:33.977
01:08:32.859 : en:01:08:32.859
01:10:14.335 : en:01:10:14.335
01:14:47.525 : en:01:14:47.525
01:21:45.567 : en:01:21:45.567
01:24:00.827 : en:01:24:00.827
01:29:15.267 : en:01:29:15.267
01:33:29.437 : en:01:33:29.437
01:36:32.996 : en:01:36:32.996
01:40:53.422 : en:01:40:53.422
01:43:59.150 : en:01:43:59.150
01:45:49.885 : en:01:45:49.885
01:49:38.947 : en:01:49:38.947
01:53:44.985 : en:01:53:44.985
01:57:23.828 : en:01:57:23.828

Скриншоты

[Профиль] [ЛС]
Кто просматривает тему:

Показать сообщения:    

Текущее время: Сегодня 12:34

Часовой пояс: GMT



Вы не можете начинать темы
Вы не можете отвечать на сообщения
Вы не можете редактировать свои сообщения
Вы не можете удалять свои сообщения
Вы не можете голосовать в опросах
Вы не можете прикреплять файлы к сообщениям
Вы не можете скачивать файлы