Чемпионы (Алексей Вакулов) [2014, Драма, спорт, BDRip] [720p]

 
Автор Сообщение

sergej644 ®

Пол:

Стаж: 4 года 11 месяцев

Сообщений: 6038

Откуда: Soviet Union



Награды: Нет

Торрент-статистика

Создавать темы 20-Июл-2014 20:37

[Цитировать]

-Чемпионы (2014) BDRip [720p]- Год выпуска: 2014
Производство: Россия, Enjoy Movies, Renovatio ent.
Жанр: Драма, спорт
Перевод: Не требуется (русский)
Субтитры: Отсутствуют
Дата мировой премьеры: 23 января 2014
Дата российской премьеры: 23 января 2014 «Каропрокат»
Дата выхода DVD релиза: 18 февраля 2014 «Lizard Cinema Trade»
Режиссер: Алексей Вакулов, Артем Аксененко, Дмитрий Дюжев
Актеры: Светлана Ходченкова, Алексей Чадов, Марк Богатырёв, Андрей Смоляков, Константин Крюков, Татьяна Арнтгольц, Таисия Вилкова, Александр Молочников, Максим Виторган, Ангелина Добророднова, Ольга Тумайкина, Андрей Федорцов, Екатерина Климова, Михаил Горевой, Игорь Верник, Дмитрий Губерниев, Виктор Гусев, Семен Трескунов, Юлия Гришина, Андрис Лиелайс, Анатолий Лобоцкий, Александр Сазонов, Андрей Лебедев, Тимур Ефременков, Егор Клинаев, Виталий Абдулов, Евгений Шириков
Описание фильма:
В центре сюжета фильма история пути к чемпионским титулам нескольких спортсменов. Пять реальных историй олимпийских медалей России. Пять историй, где переплетаются любовь, предательство, дружба. Это истории настоящих побед. И за каждой победой стоит уважение, труд и вера в себя, в близких и в свою страну.

Продолжительность: 01:37:51
Качество видео: BDRip 720p
Видеокодек: MPEG-4 AVC/H.264
Битрейт видео: 5512 kb/s
Размер кадра: 1280x536
Аудио: Русский: DTS, 48.0 KHz, 6 ch, 768 Kbps

MediaInfo:

General
Unique ID                                : 215327357083557215513303380589970672933 (0xA1FE8A5D3E99615AA5FFFEE235B74D25)
Complete name                            : E:\Фильмы\Чемпионы.2014.720p.BluRay.HDClub.mkv
Format                                   : Matroska
Format version                           : Version 2
File size                                : 4.38 GiB
Duration                                 : 1h 37mn
Overall bit rate                         : 6 407 Kbps
Movie name                               : Reliase for HDClub
Encoded date                             : UTC 2014-02-21 12:39:41
Writing application                      : mkvmerge v5.8.0 ('No Sleep / Pillow') built on Sep  2 2012 15:37:04
Writing library                          : libebml v1.2.3 + libmatroska v1.3.0
Video
ID                                       : 1
Format                                   : AVC
Format/Info                              : Advanced Video Codec
Format profile                           : [url=mailto:High@L4.1]High@L4.1[/url]
Format settings, CABAC                   : Yes
Format settings, ReFrames                : 12 frames
Codec ID                                 : V_MPEG4/ISO/AVC
Duration                                 : 1h 37mn
Bit rate                                 : 5 512 Kbps
Width                                    : 1 280 pixels
Height                                   : 536 pixels
Display aspect ratio                     : 2.40:1
Frame rate mode                          : Constant
Frame rate                               : 24.000 fps
Color space                              : YUV
Chroma subsampling                       : 4:2:0
Bit depth                                : 8 bits
Scan type                                : Progressive
Bits/(Pixel*Frame)                       : 0.335
Stream size                              : 3.77 GiB (86%)
Title                                    : Chempions.2014.720p.BluRay.Rus.HDClub
Writing library                          : x264 core 140 r2377+40 929f149 tMod [8-bit@all X86_64]
Encoding settings                        : cabac=1 / ref=12 / deblock=1:-3:-3 / analyse=0x3:0x133 / me=umh / subme=11 / psy=1 / fade_compensate=0.00 / psy_rd=1.00:0.00 / mixed_ref=1 / me_range=32 / chroma_me=1 / trellis=2 / 8x8dct=1 / cqm=0 / deadzone=21,11 / fast_pskip=0 / chroma_qp_offset=-2 / threads=12 / lookahead_threads=2 / sliced_threads=0 / nr=0 / decimate=1 / interlaced=0 / bluray_compat=0 / constrained_intra=0 / fgo=0 / bframes=7 / b_pyramid=2 / b_adapt=2 / b_bias=0 / direct=1 / weightb=1 / open_gop=0 / weightp=2 / keyint=240 / keyint_min=24 / scenecut=40 / intra_refresh=0 / rc_lookahead=60 / rc=crf / mbtree=0 / crf=16.0000 / qcomp=0.70 / qpmin=0:0:0 / qpmax=69:69:69 / qpstep=4 / vbv_maxrate=50000 / vbv_bufsize=62500 / crf_max=0.0 / nal_hrd=none / filler=0 / ip_ratio=1.25 / pb_ratio=1.15 / aq=4:0.80 / aq-sensitivity=10.00 / aq-factor=1.00:1.00:1.00 / aq2=0 / aq3=0
Language                                 : Russian
Default                                  : Yes
Forced                                   : No
Color primaries                          : BT.709
Transfer characteristics                 : BT.709
Matrix coefficients                      : BT.709
Audio
ID                                       : 2
Format                                   : DTS
Format/Info                              : Digital Theater Systems
Mode                                     : 16
Format settings, Endianness              : Big
Codec ID                                 : A_DTS
Duration                                 : 1h 37mn
Bit rate mode                            : Constant
Bit rate                                 : 768 Kbps
Channel(s)                               : 6 channels
Channel positions                        : Front: L C R, Side: L R, LFE
Sampling rate                            : 48.0 KHz
Bit depth                                : 16 bits
Compression mode                         : Lossy
Stream size                              : 538 MiB (12%)
Title                                    : DTS 5.1 @ 768 - Blu-Ray Rus [LPCM 5.1 -> DTS 5.1]
Language                                 : Russian
Default                                  : Yes
Forced                                   : No
Menu
00:00:00.000                             : ru:Chapter 1
00:00:04.000                             : ru:Chapter 2
00:10:56.708                             : ru:Chapter 3
00:25:52.875                             : ru:Chapter 4
00:36:33.250                             : ru:Chapter 5
00:52:38.541                             : ru:Chapter 6
01:01:39.833                             : ru:Chapter 7
01:17:17.750                             : ru:Chapter 8
01:29:19.875                             : ru:Chapter 9
Скриншоты:
Время раздачи: Круглосуточно (До 5-ти скачавших)
[Профиль] [ЛС]
Кто просматривает тему:

Форум Тема Автор Размер
Футбол HФутбол. Чемпионат Испании 2015-16. 31-й тур. Барселона - Реал [02.04] (2016) DTVRip Russian Mafia 1.41 GB
Разное Биатлон. Чемпионат Мира 2015. Контиолахти (Финляндия). Женщины. Индивидуальная гонка 15 км [11.03] (2015) HDTVRip 720p sergej644 3.54 GB
Разное Биатлон. Чемпионат Мира 2015. Контиолахти (Финляндия). Мужчины. Масс-старт 15 км [15.03] (2015) HDTV 1080i sergej644 4.15 GB
Разное Биатлон. Чемпионат Мира 2015. Контиолахти (Финляндия). Мужчины. Масс-старт 15 км [15.03] (2015) HDTVRip 720р sergej644 1016 MB
Разное Биталон. Лыжные гонки. Гонка Чемпионов. Тюмень (Россия) [09.04] (2016) WEB-DL 720p Russian Mafia 6.47 GB
Бокс, Бои без правил, К1 Бокс. Бой за звание чемпиона мира. Владимир Кличко — Кубрат Пулев (2014) SATRip Белочка 768 MB
Отечественные мультфильмы Вот так чемпионы! / Putukate suve - mängud (Хейно Парс) [1971, кукольный мультфильм, WEBRip] VO + Rus Sub TorrentFilm 334 MB
Футбол Все голы Чемпионата Мира 2014 / Спорт 1 HD [Футбол, H.264, 50fps, HDTVRip/720p] Russian Mafia 4.27 GB
Показать сообщения:    

Текущее время: Сегодня 14:33

Часовой пояс: GMT



Вы не можете начинать темы
Вы не можете отвечать на сообщения
Вы не можете редактировать свои сообщения
Вы не можете удалять свои сообщения
Вы не можете голосовать в опросах
Вы не можете прикреплять файлы к сообщениям
Вы не можете скачивать файлы