Чемпионы: Быстрее. Выше. Сильнее (Артем Аксененко) [2016, Россия, спорт, драма, биография, BDRip 720p]

 
Автор Сообщение

TorrentFilm ®

Пол:

Стаж: 2 года

Сообщений: 7741



Награды: Нет

Торрент-статистика

Создавать темы 07-Апр-2016 00:09

[Цитировать]

Чемпионы: Быстрее. Выше. Сильнее- Страна: Россия
Жанр: спорт, драма, биография
Год выпуска: 2016
Продолжительность: 01:43:48
Перевод: Не требуется
Cубтитры: английские
Оригинальная аудиодорожка: русский
Режиссер: Артем Аксененко
В ролях: Сергей Бондарчук, Евгений Пронин, Кристина Асмус, Егор Корешков, Александр Робак, Дарья Екамасова, Сергей Сосновский, Виктор Хориняк, Джемал Тетруашвили, Кристина Шаповалова
Описание: В мире их называли «Асфальтоукладчик», «Королева брусьев» и «Русская торпеда». Борец Александр Карелин, гимнастка Светлана Хоркина и пловец Александр Попов — реальные истории трех легендарных российских спортсменов, на общем счету которых 9 золотых олимпийских медалей и больше тысячи побед! У каждого был свой путь, своя уникальная драматическая история восхождения. Три яркие новеллы, основанные на реальных событиях, расскажут о том, что осталось за кадром спортивной хроники и каким был путь к высшему спортивному достижению — Олимпийский чемпион. Они стали легендами мирового спорта и дали возможность всей стране сказать «Мы победили!».

Тип релиза: BDRip 720р
Контейнер: MKV
Видео: x264@L4.1, 1280x544 (2.35:1), 24.000 fps, ~9143 kbps avg
Аудио: 48 kHz, DTS, 3/2 (L,C,R,l,r) + LFE ch, ~1509 kbps avg

MediaInfo | x264 log

Format : Matroska
Format version : Version 4 / Version 2
File size : 7.88 GiB
Duration : 1h 43mn
Overall bit rate : 10.9 Mbps
Movie name : Чемпионы: Быстрее. Выше. Сильнее (2016) :: AFM ::
Encoded date : UTC 2016-04-05 01:50:06
Writing application : mkvmerge v8.3.0 ('Over the Horizon') 32bit
Writing library : libebml v1.3.1 + libmatroska v1.4.2
Video
ID : 1
Format : AVC
Format/Info : Advanced Video Codec
Format profile : High@L4.1
Format settings, CABAC : Yes
Format settings, ReFrames : 10 frames
Codec ID : V_MPEG4/ISO/AVC
Duration : 1h 43mn
Bit rate : 9 143 Kbps
Width : 1 280 pixels
Height : 544 pixels
Display aspect ratio : 2.35:1
Frame rate mode : Constant
Frame rate : 24.000 fps
Color space : YUV
Chroma subsampling : 4:2:0
Bit depth : 8 bits
Scan type : Progressive
Bits/(Pixel*Frame) : 0.547
Stream size : 6.63 GiB (84%)
Title : BDRip by AFM [RuTracker.org]
Writing library : x264 core 148 r2665+53 6629127 t_mod_Custom [8-bit@all X86_64]
Encoding settings : cabac=1 / ref=10 / deblock=1:-3:-3 / analyse=0x3:0x113 / me=umh / subme=10 / psy=1 / fade_compensate=0.00 / psy_rd=1.00:0.00 / mixed_ref=1 / me_range=32 / chroma_me=1 / trellis=2 / 8x8dct=1 / cqm=0 / deadzone=21,11 / fast_pskip=0 / chroma_qp_offset=-2 / threads=6 / lookahead_threads=1 / sliced_threads=0 / nr=0 / decimate=1 / interlaced=0 / bluray_compat=0 / constrained_intra=0 / fgo=0 / bframes=12 / b_pyramid=2 / b_adapt=2 / b_bias=0 / direct=1 / weightb=1 / open_gop=0 / weightp=2 / keyint=250 / keyint_min=23 / scenecut=40 / intra_refresh=0 / rc_lookahead=40 / rc=crf / mbtree=0 / crf=17.0000 / qcomp=0.65 / qpmin=0:0:0 / qpmax=69:69:69 / qpstep=4 / vbv_maxrate=50000 / vbv_bufsize=62500 / crf_max=0.0 / nal_hrd=none / filler=0 / ip_ratio=1.33 / pb_ratio=1.30 / aq=3:0.80 / aq-sensitivity=10.00 / aq-factor=1.00:1.00:1.00 / aq2=0 / aq3=0
Language : Russian
Default : Yes
Forced : No
Audio
ID : 2
Format : DTS
Format/Info : Digital Theater Systems
Mode : 16
Format settings, Endianness : Big
Codec ID : A_DTS
Duration : 1h 43mn
Bit rate mode : Constant
Bit rate : 1 509 Kbps
Channel(s) : 6 channels
Channel positions : Front: L C R, Side: L R, LFE
Sampling rate : 48.0 KHz
Bit depth : 24 bits
Compression mode : Lossy
Stream size : 1.09 GiB (14%)
Title : original, DTS 5.1 ~1509 kbps
Language : Russian
Default : Yes
Forced : No
Text
ID : 3
Format : UTF-8
Codec ID : S_TEXT/UTF8
Codec ID/Info : UTF-8 Plain Text
Language : English
Default : No
Forced : No
Menu
00:00:00.000 : ru:Chapter 1
00:01:07.208 : ru:Chapter 2
00:14:04.333 : ru:Chapter 3
00:27:26.333 : ru:Chapter 4
00:40:01.250 : ru:Chapter 5
00:49:56.958 : ru:Chapter 6
01:00:13.250 : ru:Chapter 7
01:14:04.666 : ru:Chapter 8
01:27:28.541 : ru:Chapter 9

x264

x264 [info]: frame I:1120 Avg QP:17.09 size:105720
x264 [info]: frame P:31740 Avg QP:17.92 size: 73719
x264 [info]: frame B:116623 Avg QP:19.99 size: 41389
x264 [info]: consecutive B-frames: 1.5% 2.1% 5.1% 26.5% 21.9% 29.7% 9.9% 0.8% 1.5% 0.5% 0.2% 0.1% 0.2%
x264 [info]: mb I I16..4: 3.9% 83.6% 12.5%
x264 [info]: mb P I16..4: 0.6% 41.5% 2.5% P16..4: 19.9% 21.2% 10.3% 0.0% 0.0% skip: 3.8%
x264 [info]: mb B I16..4: 0.1% 8.1% 0.5% B16..8: 38.7% 19.1% 7.9% direct:12.8% skip:13.0% L0:41.7% L1:41.4% BI:17.0%
x264 [info]: 8x8 transform intra:92.9% inter:65.4%
x264 [info]: coded y,uvDC,uvAC intra: 98.1% 82.3% 51.6% inter: 65.0% 39.0% 5.4%
x264 [info]: i16 v,h,dc,p: 36% 23% 6% 35%
x264 [info]: i8 v,h,dc,ddl,ddr,vr,hd,vl,hu: 9% 9% 13% 9% 12% 12% 12% 11% 13%
x264 [info]: i4 v,h,dc,ddl,ddr,vr,hd,vl,hu: 9% 10% 3% 9% 15% 15% 14% 12% 14%
x264 [info]: i8c dc,h,v,p: 34% 28% 20% 18%
x264 [info]: Weighted P-Frames: Y:97.5% UV:1.0%
x264 [info]: ref P L0: 42.4% 14.1% 17.6% 7.0% 5.6% 3.9% 3.3% 2.1% 2.3% 1.7% 0.1% 0.0%
x264 [info]: ref B L0: 75.0% 10.5% 5.4% 2.8% 2.4% 1.6% 1.3% 0.6% 0.3%
x264 [info]: ref B L1: 93.5% 6.5%
x264 [info]: kb/s:9357.23

Скриншоты

~~ Source ~~
~~ Rip ~~
[Профиль] [ЛС]
Кто просматривает тему:

Форум Тема Автор Размер
Футбол HФутбол. Чемпионат Испании 2015-16. 31-й тур. Барселона - Реал [02.04] (2016) DTVRip Russian Mafia 1.41 GB
Разное Биатлон. Чемпионат Мира 2015. Контиолахти (Финляндия). Женщины. Индивидуальная гонка 15 км [11.03] (2015) HDTVRip 720p sergej644 3.54 GB
Разное Биатлон. Чемпионат Мира 2015. Контиолахти (Финляндия). Мужчины. Масс-старт 15 км [15.03] (2015) HDTV 1080i sergej644 4.15 GB
Разное Биатлон. Чемпионат Мира 2015. Контиолахти (Финляндия). Мужчины. Масс-старт 15 км [15.03] (2015) HDTVRip 720р sergej644 1016 MB
Разное Биталон. Лыжные гонки. Гонка Чемпионов. Тюмень (Россия) [09.04] (2016) WEB-DL 720p Russian Mafia 6.47 GB
Бокс, Бои без правил, К1 Бокс. Бой за звание чемпиона мира. Владимир Кличко — Кубрат Пулев (2014) SATRip Белочка 768 MB
Отечественные мультфильмы Вот так чемпионы! / Putukate suve - mängud (Хейно Парс) [1971, кукольный мультфильм, WEBRip] VO + Rus Sub TorrentFilm 334 MB
Футбол Все голы Чемпионата Мира 2014 / Спорт 1 HD [Футбол, H.264, 50fps, HDTVRip/720p] Russian Mafia 4.27 GB
Показать сообщения:    

Текущее время: Сегодня 13:51

Часовой пояс: GMT



Вы не можете начинать темы
Вы не можете отвечать на сообщения
Вы не можете редактировать свои сообщения
Вы не можете удалять свои сообщения
Вы не можете голосовать в опросах
Вы не можете прикреплять файлы к сообщениям
Вы не можете скачивать файлы