Чемпионы: Быстрее. Выше. Сильнее (2016) BDRip-AVC от R.G.Resident | Лицензия

 
Автор Сообщение

Russian Mafia ®

Пол:

Стаж: 1 год 8 месяцев

Сообщений: 4257



Награды: 10 (Подробнее)

За внесенный вклад в развитие сайта (Количество: 1) Top Releaser 4 (Количество: 1) Mega Seeder 4 (Количество: 1)
Торрент-статистика

Создавать темы 01-Апр-2016 07:57

[Цитировать]

Информация о фильме
Название: Чемпионы: Быстрее. Выше. Сильнее
Год выпуска: 2016
Страна: Россия
Жанр: спорт, драма-Перевод: Оригинальный [Лицензия]
Субтитры: английские (Full)
Продолжительность: 01:43:48-Режиссер: Артем Аксененко
В ролях: Сергей Бондарчук (Александр Карелин), Евгений Пронин (Александр Попов), Кристина Асмус (Светлана Хоркина), Егор Корешков, Александр Робак, Дарья Екамасова, Сергей Сосновский, Виктор Хориняк, Джемал Тетруашвили, Кристина Шаповалова, Виктория Толстоганова, Василий Мищенко-Описание:
В мире их называли «Асфальтоукладчик», «Королева брусьев» и «Русская торпеда». Борец Александр Карелин, гимнастка Светлана Хоркина и пловец Александр Попов - реальные истории трех легендарных российских спортсменов, на общем счету которых 9 золотых олимпийских медалей и больше тысячи побед! У каждого был свой путь, своя уникальная драматическая история восхождения. Три яркие новеллы, основанные на реальных событиях, расскажут о том, что осталось за кадром спортивной хроники и каким был путь к высшему спортивному достижению - Олимпийский чемпион. Они стали легендами мирового спорта и дали возможность всей стране сказать «Мы победили!».-Рейтинг:
-Качество: BDRip-AVC
Формат: MKV
Видео: AVC, 1024x436 (2.35:1), 1697 kbps, 24 fps, 0,158 bpp
Аудио: AC3 / 5.1 / 48 kHz / 448 kbps / 16 bit
Навигация по главам: есть-Релиз от: by schultz

ОтчетМедиаИнфо

General
Unique ID : 244462128280989095051501615921049784861 (0xB7E9B17CED8D63D78608CC4E7726521D)
Complete name : D:downloadChempiony.Bystree.Vyshe.Sil'nee.2016.BDRip-AVC by schultz R.G.Resident.mkv
Format : Matroska
Format version : Version 4 / Version 2
File size : 1.55 GiB
Duration : 1h 43mn
Overall bit rate : 2 142 Kbps
Movie name : Чемпионы: Быстрее. Выше. Сильнее (2016) BDRip (1080p) от ivandubskoj
Encoded date : UTC 2016-04-01 04:19:08
Writing application : mkvmerge v8.9.0 ('Father Daughter') 64bit
Writing library : libebml v1.3.3 + libmatroska v1.4.4
DURATION : 01:37:54.792000000
NUMBER_OF_FRAMES : 978
NUMBER_OF_BYTES : 33098
_STATISTICS_WRITING_APP : mkvmerge v8.9.0 ('Father Daughter') 64bit
_STATISTICS_WRITING_DATE_UTC : 2016-04-01 04:19:08
_STATISTICS_TAGS : BPS DURATION NUMBER_OF_FRAMES NUMBER_OF_BYTES
Video
ID : 1
Format : AVC
Format/Info : Advanced Video Codec
Format profile : High@L4.1
Format settings, CABAC : Yes
Format settings, ReFrames : 12 frames
Codec ID : V_MPEG4/ISO/AVC
Duration : 1h 43mn
Bit rate : 1 697 Kbps
Width : 1 024 pixels
Height : 436 pixels
Display aspect ratio : 2.35:1
Frame rate : 24.000 fps
Color space : YUV
Chroma subsampling : 4:2:0
Bit depth : 8 bits
Scan type : Progressive
Bits/(Pixel*Frame) : 0.158
Stream size : 1.20 GiB (77%)
Writing library : x264 core 146 r2538 121396c
Encoding settings : cabac=1 / ref=12 / deblock=1:-3:-3 / analyse=0x3:0x113 / me=umh / subme=11 / psy=1 / psy_rd=1.00:0.00 / mixed_ref=1 / me_range=48 / chroma_me=1 / trellis=2 / 8x8dct=1 / cqm=0 / deadzone=21,11 / fast_pskip=0 / chroma_qp_offset=-2 / threads=12 / lookahead_threads=3 / sliced_threads=0 / nr=0 / decimate=1 / interlaced=0 / bluray_compat=0 / constrained_intra=0 / bframes=13 / b_pyramid=2 / b_adapt=2 / b_bias=0 / direct=3 / weightb=1 / open_gop=0 / weightp=2 / keyint=240 / keyint_min=23 / scenecut=40 / intra_refresh=0 / rc_lookahead=40 / rc=2pass / mbtree=1 / bitrate=1697 / ratetol=1.0 / qcomp=0.60 / qpmin=0 / qpmax=69 / qpstep=4 / cplxblur=20.0 / qblur=0.5 / vbv_maxrate=14000 / vbv_bufsize=14000 / nal_hrd=none / filler=0 / ip_ratio=1.40 / aq=1:1.00
Default : Yes
Forced : No
Audio
ID : 2
Format : AC-3
Format/Info : Audio Coding 3
Mode extension : CM (complete main)
Codec ID : A_AC3
Duration : 1h 43mn
Bit rate mode : Constant
Bit rate : 448 Kbps
Channel(s) : 6 channels
Channel positions : Front: L C R, Side: L R, LFE
Sampling rate : 48.0 KHz
Bit depth : 16 bits
Compression mode : Lossy
Stream size : 333 MiB (21%)
Default : Yes
Forced : No
Text
ID : 3
Format : UTF-8
Codec ID : S_TEXT/UTF8
Codec ID/Info : UTF-8 Plain Text
Title : Full
Language : English
Default : No
Forced : No
Menu
00:00:00.000 : ru:Chapter 1
00:01:07.208 : ru:Chapter 2
00:14:04.333 : ru:Chapter 3
00:27:26.333 : ru:Chapter 4
00:40:01.250 : ru:Chapter 5
00:49:56.958 : ru:Chapter 6
01:00:13.250 : ru:Chapter 7
01:14:04.666 : ru:Chapter 8
01:27:28.541 : ru:Chapter 9

Скриншоты

[Профиль] [ЛС]
Кто просматривает тему:

Форум Тема Автор Размер
Футбол HФутбол. Чемпионат Испании 2015-16. 31-й тур. Барселона - Реал [02.04] (2016) DTVRip Russian Mafia 1.41 GB
Разное Биатлон. Чемпионат Мира 2015. Контиолахти (Финляндия). Женщины. Индивидуальная гонка 15 км [11.03] (2015) HDTVRip 720p sergej644 3.54 GB
Разное Биатлон. Чемпионат Мира 2015. Контиолахти (Финляндия). Мужчины. Масс-старт 15 км [15.03] (2015) HDTV 1080i sergej644 4.15 GB
Разное Биатлон. Чемпионат Мира 2015. Контиолахти (Финляндия). Мужчины. Масс-старт 15 км [15.03] (2015) HDTVRip 720р sergej644 1016 MB
Разное Биталон. Лыжные гонки. Гонка Чемпионов. Тюмень (Россия) [09.04] (2016) WEB-DL 720p Russian Mafia 6.47 GB
Бокс, Бои без правил, К1 Бокс. Бой за звание чемпиона мира. Владимир Кличко — Кубрат Пулев (2014) SATRip Белочка 768 MB
Отечественные мультфильмы Вот так чемпионы! / Putukate suve - mängud (Хейно Парс) [1971, кукольный мультфильм, WEBRip] VO + Rus Sub TorrentFilm 334 MB
Футбол Все голы Чемпионата Мира 2014 / Спорт 1 HD [Футбол, H.264, 50fps, HDTVRip/720p] Russian Mafia 4.27 GB
Показать сообщения:    

Текущее время: Сегодня 20:22

Часовой пояс: GMT



Вы не можете начинать темы
Вы не можете отвечать на сообщения
Вы не можете редактировать свои сообщения
Вы не можете удалять свои сообщения
Вы не можете голосовать в опросах
Вы не можете прикреплять файлы к сообщениям
Вы не можете скачивать файлы