Чемпионы: Быстрее. Выше. Сильнее (2016) BDRip 720p от ivandubskoj | Лицензия

 
Автор Сообщение

Russian Mafia ®

Пол:

Стаж: 1 год 8 месяцев

Сообщений: 4246



Награды: 10 (Подробнее)

Top Releaser 5 (Количество: 1) Top Releaser 2 (Количество: 1) Top Releaser 4 (Количество: 1)
Торрент-статистика

Создавать темы 31-Мар-2016 11:53

[Цитировать]

Информация о фильме
Название: Чемпионы: Быстрее. Выше. Сильнее
Оригинальное название: Чемпионы: Быстрее. Выше. Сильнее
Год выхода: 2016
Жанр: Драма, спорт
Режиссёр: Артем Аксененко
В ролях: Сергей Бондарчук, Евгений Пронин, Кристина Асмус, Егор Корешков, Александр Робак, Дарья Екамасова, Сергей Сосновский, Виктор Хориняк, Джемал Тетруашвили, Кристина Шаповалова
О фильме: В мире их называли «Асфальтоукладчик», «Королева брусьев» и «Русская торпеда». Борец Александр Карелин, гимнастка Светлана Хоркина и пловец Александр Попов — реальные истории трех легендарных российских спортсменов, на общем счету которых 9 золотых олимпийских медалей и больше тысячи побед! У каждого был свой путь, своя уникальная драматическая история восхождения. Три яркие новеллы, основанные на реальных событиях, расскажут о том, что осталось за кадром спортивной хроники и каким был путь к высшему спортивному достижению — Олимпийский чемпион. Они стали легендами мирового спорта и дали возможность всей стране сказать «Мы победили!».

Выпущено: Россия, Enjoy Movies
Продолжительность: 01:43:48
Перевод: Не требуется
Файл
Формат: MKV
Кодек: MPEG-4 AVC
Качество: BDRip (720p) [Исходник: Blu-ray RUS 1080p AVC DTS-HD 5.1]
Видео: MPEG-4 AVC, 1280x544 (2.35:1), 5397 Кбит/с, 24 кадр/с, 0.314 bit/pixel
Аудио: Русский, Dolby AC3, 48000 Гц, 640 Кбит/с, 6 каналов (5.1) - Оригинал
Субтитры: Английские (полные) SRT
Навигация по главам: Есть (Сохранены оригинальные чаптеры, как на Blu-ray)

x264 лог

x264 [info]: profile High, level 4.1
x264 [info]: frame I:1253 Avg QP:18.15 size: 95842
x264 [info]: frame P:35961 Avg QP:20.96 size: 47142
x264 [info]: frame B:112269 Avg QP:21.52 size: 22294
x264 [info]: consecutive B-frames: 2.8% 5.0% 8.6% 28.0% 21.1% 25.0% 8.6% 1.0%

MediaInfo

General
Unique ID : 198862131833477473806112573854048032285 (0x959B74155140D75CBFD9AB6AE4FF961D)
Complete name : Chempiony.Bystree.Vyshe.Sil'nee.2016.BDRip.720p.mkv
Format : Matroska
Format version : Version 4 / Version 2
File size : 4.37 GiB
Duration : 1h 43mn
Overall bit rate : 6 030 Kbps
Movie name : Чемпионы: Быстрее. Выше. Сильнее (2016) BDRip (720p) от ivandubskoj
Encoded date : UTC 2016-03-31 10:31:01
Writing application : mkvmerge v7.8.0 ('River Man') 64bit built on Mar 27 2015 16:31:37
Writing library : libebml v1.3.1 + libmatroska v1.4.2
Video
ID : 1
Format : AVC
Format/Info : Advanced Video Codec
Format profile : High@L4.1
Format settings, CABAC : Yes
Format settings, ReFrames : 9 frames
Codec ID : V_MPEG4/ISO/AVC
Duration : 1h 43mn
Bit rate : 5 397 Kbps
Width : 1 280 pixels
Height : 544 pixels
Display aspect ratio : 2.35:1
Frame rate mode : Constant
Frame rate : 24.000 fps
Color space : YUV
Chroma subsampling : 4:2:0
Bit depth : 8 bits
Scan type : Progressive
Bits/(Pixel*Frame) : 0.323
Stream size : 3.82 GiB (87%)
Title : Чемпионы: Быстрее. Выше. Сильнее (2016)
Writing library : x264 core 146 r2538 121396c
Encoding settings : cabac=1 / ref=9 / deblock=1:-3:3 / analyse=0x3:0x113 / me=umh / subme=10 / psy=1 / psy_rd=1.00:0.00 / mixed_ref=1 / me_range=32 / chroma_me=1 / trellis=2 / 8x8dct=1 / cqm=0 / deadzone=21,11 / fast_pskip=0 / chroma_qp_offset=-2 / threads=6 / lookahead_threads=1 / sliced_threads=0 / nr=0 / decimate=0 / interlaced=0 / bluray_compat=0 / constrained_intra=0 / bframes=7 / b_pyramid=2 / b_adapt=2 / b_bias=0 / direct=3 / weightb=1 / open_gop=0 / weightp=2 / keyint=240 / keyint_min=23 / scenecut=40 / intra_refresh=0 / rc_lookahead=40 / rc=2pass / mbtree=0 / bitrate=5397 / ratetol=1.0 / qcomp=0.60 / qpmin=0 / qpmax=69 / qpstep=4 / cplxblur=20.0 / qblur=0.5 / vbv_maxrate=50000 / vbv_bufsize=62500 / nal_hrd=none / filler=0 / ip_ratio=1.40 / pb_ratio=1.30 / aq=1:1.00
Language : Russian
Default : Yes
Forced : No
Audio
ID : 2
Format : AC-3
Format/Info : Audio Coding 3
Mode extension : CM (complete main)
Format settings, Endianness : Big
Codec ID : A_AC3
Duration : 1h 43mn
Bit rate mode : Constant
Bit rate : 640 Kbps
Channel(s) : 6 channels
Channel positions : Front: L C R, Side: L R, LFE
Sampling rate : 48.0 KHz
Bit depth : 16 bits
Compression mode : Lossy
Stream size : 475 MiB (11%)
Title : Original
Language : Russian
Default : Yes
Forced : No
Text
ID : 3
Format : UTF-8
Codec ID : S_TEXT/UTF8
Codec ID/Info : UTF-8 Plain Text
Title : Full
Language : English
Default : No
Forced : No
Menu
00:00:00.000 : ru:Chapter 1
00:01:07.208 : ru:Chapter 2
00:14:04.333 : ru:Chapter 3
00:27:26.333 : ru:Chapter 4
00:40:01.250 : ru:Chapter 5
00:49:56.958 : ru:Chapter 6
01:00:13.250 : ru:Chapter 7
01:14:04.666 : ru:Chapter 8
01:27:28.541 : ru:Chapter 9

Скриншоты



Автор рипа - ivandubskoj
[Профиль] [ЛС]
Кто просматривает тему:

Форум Тема Автор Размер
Футбол HФутбол. Чемпионат Испании 2015-16. 31-й тур. Барселона - Реал [02.04] (2016) DTVRip Russian Mafia 1.41 GB
Разное Биатлон. Чемпионат Мира 2015. Контиолахти (Финляндия). Женщины. Индивидуальная гонка 15 км [11.03] (2015) HDTVRip 720p sergej644 3.54 GB
Разное Биатлон. Чемпионат Мира 2015. Контиолахти (Финляндия). Мужчины. Масс-старт 15 км [15.03] (2015) HDTV 1080i sergej644 4.15 GB
Разное Биатлон. Чемпионат Мира 2015. Контиолахти (Финляндия). Мужчины. Масс-старт 15 км [15.03] (2015) HDTVRip 720р sergej644 1016 MB
Разное Биталон. Лыжные гонки. Гонка Чемпионов. Тюмень (Россия) [09.04] (2016) WEB-DL 720p Russian Mafia 6.47 GB
Бокс, Бои без правил, К1 Бокс. Бой за звание чемпиона мира. Владимир Кличко — Кубрат Пулев (2014) SATRip Белочка 768 MB
Отечественные мультфильмы Вот так чемпионы! / Putukate suve - mängud (Хейно Парс) [1971, кукольный мультфильм, WEBRip] VO + Rus Sub TorrentFilm 334 MB
Футбол Все голы Чемпионата Мира 2014 / Спорт 1 HD [Футбол, H.264, 50fps, HDTVRip/720p] Russian Mafia 4.27 GB
Показать сообщения:    

Текущее время: Сегодня 02:46

Часовой пояс: GMT



Вы не можете начинать темы
Вы не можете отвечать на сообщения
Вы не можете редактировать свои сообщения
Вы не можете удалять свои сообщения
Вы не можете голосовать в опросах
Вы не можете прикреплять файлы к сообщениям
Вы не можете скачивать файлы