Чемпионат мира. Плавание. День 1. Финалы [02.08] (2015) IPTVRip

 
Автор Сообщение

sergej644 ®

Пол:

Стаж: 5 лет 2 месяца

Сообщений: 6092

Откуда: Soviet Union



Награды: Нет

Торрент-статистика

Создавать темы 03-Авг-2015 10:11

[Цитировать]

Чемпионат мира по водным видам спорта 2015 | Плавание | День 1 | Финалы

Дата: 02.08.2015
Вид спорта: Плавание
Продолжительность: 01:38:11
Язык комментариев: русский|Д. Губерниев-Канал: Россия 2
Дисциплины
Women's Butterfly 100m Semi-Finals
Men's Freestyle 400m Final
Women's Medley 200m Semi-Finals
Men's Butterfly 50m Semi-Finals
Women's Freestyle 400m Final
Men's Breaststroke 100m Semi-Finals
Women's Freestyle 4x100m Final
Men's Freestyle 4x100m Final
Автор записи: A$taroth-Качество: IPTV
Формат: MPEG-TS
Видео кодек: MPEG2 Video
Аудио кодек: MP2
Видео: MPEG2 Video | 720x576 [4:3] | 25 fps | ~ 2900 Kbps
Аудио: MP2 | 2 ch | 48.0 KHz | 384 Kbps-

MI

General
ID : 1 (0x1)
Complete name : C:ReleasesSportKazan-2015 [WC].Swimming.Sport [IPTV]Kazan-2015 [WC].Swimming.Day1.Finals.Sport [IPTV].ts
Format : MPEG-TS
File size : 2.37 GiB
Duration : 1h 38mn
Overall bit rate mode : Variable
Overall bit rate : 3 458 Kbps
Maximum Overall bit rate : 35.5 Mbps
Video
ID : 4113 (0x1011)
Menu ID : 1 (0x1)
Format : MPEG Video
Format version : Version 2
Format profile : Main@Main
Format settings, BVOP : Yes
Format settings, Matrix : Default
Format settings, GOP : M=3, N=15
Format settings, picture structure : Frame
Codec ID : 2
Duration : 1h 38mn
Bit rate mode : Variable
Bit rate : 2 899 Kbps
Maximum bit rate : 5 841 Kbps
Width : 720 pixels
Height : 576 pixels
Display aspect ratio : 4:3
Frame rate : 25.000 fps
Standard : PAL
Color space : YUV
Chroma subsampling : 4:2:0
Bit depth : 8 bits
Scan type : Interlaced
Scan order : Top Field First
Compression mode : Lossy
Bits/(Pixel*Frame) : 0.280
Time code of first frame : 00:00:00:00
Time code source : Group of pictures header
GOP, Open/Closed : Open
GOP, Open/Closed of first frame : Closed
Stream size : 1.99 GiB (84%)
Audio
ID : 4352 (0x1100)
Menu ID : 1 (0x1)
Format : MPEG Audio
Format version : Version 1
Format profile : Layer 2
Codec ID : 4
Duration : 1h 38mn
Bit rate mode : Constant
Bit rate : 384 Kbps
Channel(s) : 2 channels
Sampling rate : 48.0 KHz
Compression mode : Lossy
Delay relative to video : -19ms
Stream size : 270 MiB (11%)
Language : Russian

Скриншоты

[Профиль] [ЛС]
Кто просматривает тему:

Форум Тема Автор Размер
Футбол HФутбол. Чемпионат Испании 2015-16. 31-й тур. Барселона - Реал [02.04] (2016) DTVRip Russian Mafia 1.41 GB
Разное Биатлон. Чемпионат Мира 2015. Контиолахти (Финляндия). Женщины. Индивидуальная гонка 15 км [11.03] (2015) HDTVRip 720p sergej644 3.54 GB
Разное Биатлон. Чемпионат Мира 2015. Контиолахти (Финляндия). Мужчины. Масс-старт 15 км [15.03] (2015) HDTV 1080i sergej644 4.15 GB
Разное Биатлон. Чемпионат Мира 2015. Контиолахти (Финляндия). Мужчины. Масс-старт 15 км [15.03] (2015) HDTVRip 720р sergej644 1016 MB
Разное Биталон. Лыжные гонки. Гонка Чемпионов. Тюмень (Россия) [09.04] (2016) WEB-DL 720p Russian Mafia 6.47 GB
Бокс, Бои без правил, К1 Бокс. Бой за звание чемпиона мира. Владимир Кличко — Кубрат Пулев (2014) SATRip Белочка 768 MB
Отечественные мультфильмы Вот так чемпионы! / Putukate suve - mängud (Хейно Парс) [1971, кукольный мультфильм, WEBRip] VO + Rus Sub TorrentFilm 334 MB
Футбол Все голы Чемпионата Мира 2014 / Спорт 1 HD [Футбол, H.264, 50fps, HDTVRip/720p] Russian Mafia 4.27 GB
Показать сообщения:    

Текущее время: Сегодня 19:15

Часовой пояс: GMT



Вы не можете начинать темы
Вы не можете отвечать на сообщения
Вы не можете редактировать свои сообщения
Вы не можете удалять свои сообщения
Вы не можете голосовать в опросах
Вы не можете прикреплять файлы к сообщениям
Вы не можете скачивать файлы