Человек хаски / Der Husky Mann / The Huskyman (Bernhard Eschenbach, Jonathan Martens) [2011, Документальный, BDRip 720p]

 
Автор Сообщение

TorrentFilm ®

Пол:

Стаж: 2 года

Сообщений: 7741



Награды: Нет

Торрент-статистика

Создавать темы 09-Апр-2015 00:02

[Цитировать]

Человек хаски / Der Husky Mann / The Huskyman Год выпуска: 2011
Страна: Германия
Студия: Sunfilm Entertainment
Жанр: Документальный
Продолжительность: 01:01:03
Перевод: Профессиональный (двухголосый закадровый)
Доп. инфо о переводе: студия «Омикрон»
Русские субтитры: есть
Режиссер: Bernhard Eschenbach, Jonathan Martens
Описание: День за днём австриец Мартин Айгентлер тренирует и обучает своих лаек, ведя их твёрдой рукой. Он готовится к следущей гонке на собачьих упряжках и хочет, чтобы его хаски в этой гонке, были на высоте. Посмотрите на жизнь этого человека и погрузитесь в его увлекательный мир..
Сэмпл: http://multi-up.com/1041417
Тип релиза: BDRip 720p
Контейнер: MKV
Видео: MPEG-4 AVC, 2789 Кбит/с, 1280x534p (2.40:1), 23.976 fps
Аудио: Русский: 48 kHz, DTS , 2 ch, ~1510 kbps avg [Профессиональный (двухголосый)]
Аудио 2: Немецкий: 48 kHz, DTS , 2 ch, ~1510 kbps avg [Оригинал]
Формат субтитров: softsub (SRT)

MediaInfo

GeneralUnique ID : 233306962340161056301368688537105336207 (0xAF85495818AC94E6A2C480E8CB80078F)Format : MatroskaFormat version : Version 2File size : 2.53 GiBDuration : 1h 1mnOverall bit rate : 5 926 KbpsMovie name : The Huskyman (2011) - Release for HDCLUBEncoded date : UTC 2013-05-17 09:00:09Writing application : mkvmerge v3.2.0 ('Beginnings') built on Feb 12 2010 16:46:17Writing library : libebml v0.7.9 + libmatroska v0.8.1
VideoID : 1Format : AVCFormat/Info : Advanced Video CodecFormat profile : High@L4.1Format settings, CABAC : YesFormat settings, ReFrames : 8 framesCodec ID : V_MPEG4/ISO/AVCDuration : 1h 1mnBit rate : 2 789 KbpsWidth : 1 280 pixelsHeight : 534 pixelsDisplay aspect ratio : 2.40:1Frame rate : 23.976 fpsColor space : YUVChroma subsampling : 4:2:0Bit depth : 8 bitsScan type : ProgressiveBits/(Pixel*Frame) : 0.170Stream size : 1.19 GiB (47%)Title : Release for HDCLUBWriting library : x264 core 129 r2245 bc13772Encoding settings : cabac=1 / ref=8 / deblock=1:-3:-3 / analyse=0x3:0x113 / me=umh / subme=10 / psy=1 / psy_rd=1.10:0.10 / mixed_ref=1 / me_range=24 / chroma_me=1 / trellis=2 / 8x8dct=1 / cqm=0 / deadzone=21,11 / fast_pskip=0 / chroma_qp_offset=-3 / threads=6 / lookahead_threads=1 / sliced_threads=0 / nr=0 / decimate=0 / interlaced=0 / bluray_compat=0 / constrained_intra=0 / bframes=7 / b_pyramid=2 / b_adapt=2 / b_bias=0 / direct=3 / weightb=1 / open_gop=0 / weightp=2 / keyint=250 / keyint_min=23 / scenecut=40 / intra_refresh=0 / rc_lookahead=50 / rc=crf / mbtree=1 / crf=18.5 / qcomp=0.75 / qpmin=0 / qpmax=69 / qpstep=4 / vbv_maxrate=50000 / vbv_bufsize=62500 / crf_max=0.0 / nal_hrd=none / ip_ratio=1.40 / aq=1:0.80Default : NoForced : No
Audio #1ID : 2Format : DTSFormat/Info : Digital Theater SystemsCodec ID : A_DTSDuration : 1h 1mnBit rate mode : ConstantBit rate : 1 510 KbpsChannel(s) : 2 channelsChannel positions : Front: L RSampling rate : 48.0 KHzBit depth : 16 bitsCompression mode : LossyStream size : 659 MiB (25%)Language : RussianDefault : YesForced : No
Audio #2ID : 3Format : DTSFormat/Info : Digital Theater SystemsCodec ID : A_DTSDuration : 1h 1mnBit rate mode : ConstantBit rate : 1 510 KbpsChannel(s) : 2 channelsChannel positions : Front: L RSampling rate : 48.0 KHzBit depth : 16 bitsCompression mode : LossyStream size : 659 MiB (25%)Language : GermanDefault : NoForced : No
Text #1ID : 4Format : UTF-8Codec ID : S_TEXT/UTF8Codec ID/Info : UTF-8 Plain TextLanguage : RussianDefault : YesForced : No
Text #2ID : 5Format : PGSCodec ID : S_HDMV/PGSCodec ID/Info : The same subtitle format used on BDs/HD-DVDsLanguage : GermanDefault : NoForced : No

Скриншоты

[Профиль] [ЛС]
Кто просматривает тему:

Форум Тема Автор Размер
Документальные HD BBC: Внутри человеческого тела / BBC: Inside the Human Body (2011) BDRip [H.264/1080p] [1-4 серии из 4] sergej644 16.92 GB
Документальные HD BBC: Внутри человеческого тела / Inside the Human Body [01-04 из 04] (2011) BDRip sergej644 2.98 GB
Документальные HD BBC: Человеческая Вселенная / Human Universe (Сезон 1 / Серии 2 из 5) (Эндрю Коэн / Andrew Cohen) [2014, Документальный, BDRip 720p] TorrentFilm 3.9 GB
BBC BBC: Чувства человека / BBC: Human senses (Джереми Тёрнер) [2003 г., Документальный, DVDRip] sergej644 2.19 GB
Da Vinci Learning Da Vinci Learning: Музыка мозга / Music of the Brain (Fiona Cochrane) [2009 г., Документальный, человек и культура, SATRip] skorpionN 876 MB
Discovery Discovery: Сверхчеловеческая наука / Super Human Science (2013) HDTVRip (Серия 13) sergej644 273 MB
Зарубежные Hoвый Человек-паук: Высокое напряжение в 3Д / The Amazing Spider-Man 2: Rise of Electro 3D (Марк Уэбб) [2014, Фэнтези, боевик, приключения, комикс, супергерой, BDremux, 1080p] BD3D TorrentFilm 34.18 GB
National Geographic NG: Больше чем фокусы с Ди Эм Си: Горящий человек / Beyond Magic With DMC (2014) SATRip (Серия 5) sergej644 560 MB
Показать сообщения:    

Текущее время: Сегодня 10:43

Часовой пояс: GMT



Вы не можете начинать темы
Вы не можете отвечать на сообщения
Вы не можете редактировать свои сообщения
Вы не можете удалять свои сообщения
Вы не можете голосовать в опросах
Вы не можете прикреплять файлы к сообщениям
Вы не можете скачивать файлы