Человек тьмы / Darkman (1990) BDRip 1080p | P

 
Автор Сообщение

sergej644 ®

Пол:

Стаж: 4 года 11 месяцев

Сообщений: 6038

Откуда: Soviet Union



Награды: Нет

Торрент-статистика

Создавать темы 31-Окт-2014 15:19

[Цитировать]

--Человек тьмы / Darkman Информация о фильме
Название: Человек тьмы
Оригинальное: Darkman
Год выхода: 1990
Страна: США
Жанр: Фантастика, боевик, триллер, криминал
Продолжительность: 01:35:23
Перевод: Профессиональный (Многоголосый закадровый)
Режиссер: Сэм Рэйми
В ролях:
Лиам Нисон, Фрэнсис Макдорманд, Колин Фрайлз, Ларри Дрэйк, Нельсон Масита, Уильям Дир, Джон Лэндис, Уильям Люстиг, Тед Рейми, профессор Тору Танака, Джесси Лоуренс Фергюсон, Рафаэль Х. Робледо, Дэн Хикс, Дэн Белл, Николас Уорт, Аарон Лустиг, Арсенио Тринидад, Саид Фарай, Натан Юнг, Джон Лисбон Вуд, Фрэнк Нун, Джулиус Харрис, Карл Бреск, Шон Дэниэл, Крэйг Хоскин, Карл А. Уикмэн, Филип А. Гиллис, Клифф Флеминг, Энди Бейл, Нил МакДонаф-Сюжет фильма
Пэйтона Уэстлэйка - талантливого ученого, любящего свою работу, заставили стать «человеком тьмы». Оказавшись на пути тех, кто не считается ни с чем, когда речь заходит о власти и деньгах, Пэйтон становится их жертвой. Но волей судьбы, погибший для всех, похороненный на кладбище, он остается жив и, став страшно обезображенным одиноким супергероем, мстит за утраченную любовь и жизнь, сражаясь с преступностью.
-Файл
Кодек: x264
Формат: MKV
Качество: BDRip 1080p (Источник: Blu-ray Disc)
Видео: MPEG-4 AVC (1.85:1) 1920x1040, 23.976 fps, 6112 kbps
Аудио: Dolby Digital (5.1) 16 bit, 48 kHz, 448 kbps (MVO "Lizard Cinema Trade" R5)
Субтитры: SRT Русские, Английские
Меню: Сохранены оригинальные чаптеры Blu-ray
Вес: 4.37 GB
Отдельно в папке:
Аудио #2: Dolby Digital (2.0) 16 bit, 48 kHz, 192 kbps (MVO "Позитив-Мультимедиа")
Аудио #3: Dolby Digital (5.1) 16 bit, 48 kHz, 640 kbps (AVO "A. Гаврилов")
Аудио #4: Dolby Digital (5.1) 16 bit, 48 kHz, 640 kbps (ENG "Original")--

MI & x264

General
Unique ID : 247531363553408450588261512203110853280 (0xBA38CE785F92975E9A17760CE1CA2AA0)
Format : Matroska
Format version : Version 2
File size : 4.37 GiB
Duration : 1h 35mn
Overall bit rate : 6 554 Kbps
Movie name : Человек тьмы (1990) BDRip (1080p)
Encoded date : UTC 2013-04-08 13:00:41
Writing application : mkvmerge v5.8.0 ('No Sleep / Pillow') built on Sep 2 2012 15:37:04
Writing library : libebml v1.2.3 + libmatroska v1.3.0
Video
ID : 1
Format : AVC
Format/Info : Advanced Video Codec
Format profile : High@L4.1
Format settings, CABAC : Yes
Format settings, ReFrames : 4 frames
Codec ID : V_MPEG4/ISO/AVC
Duration : 1h 35mn
Bit rate : 6 112 Kbps
Width : 1 920 pixels
Height : 1 040 pixels
Display aspect ratio : 1.85:1
Frame rate mode : Constant
Frame rate : 23.976 fps
Color space : YUV
Chroma subsampling : 4:2:0
Bit depth : 8 bits
Scan type : Progressive
Bits/(Pixel*Frame) : 0.128
Stream size : 3.98 GiB (91%)
Title : Release by Alex260680
Writing library : x264 core 130 r2273 b3065e6
Encoding settings : cabac=1 / ref=4 / deblock=1:0:0 / analyse=0x3:0x133 / me=umh / subme=11 / psy=1 / psy_rd=1.10:0.00 / mixed_ref=1 / me_range=32 / chroma_me=1 / trellis=2 / 8x8dct=1 / cqm=0 / deadzone=21,11 / fast_pskip=0 / chroma_qp_offset=-2 / threads=12 / lookahead_threads=1 / sliced_threads=0 / nr=0 / decimate=0 / interlaced=0 / bluray_compat=0 / constrained_intra=0 / bframes=5 / b_pyramid=2 / b_adapt=2 / b_bias=0 / direct=3 / weightb=1 / open_gop=0 / weightp=2 / keyint=240 / keyint_min=23 / scenecut=40 / intra_refresh=0 / rc=2pass / mbtree=0 / bitrate=6112 / ratetol=1.0 / qcomp=0.60 / qpmin=0 / qpmax=69 / qpstep=4 / cplxblur=20.0 / qblur=0.5 / ip_ratio=1.40 / pb_ratio=1.30 / aq=1:1.00
Language : English
Default : Yes
Forced : No
Audio
ID : 2
Format : AC-3
Format/Info : Audio Coding 3
Mode extension : CM (complete main)
Format settings, Endianness : Big
Codec ID : A_AC3
Duration : 1h 35mn
Bit rate mode : Constant
Bit rate : 448 Kbps
Channel(s) : 6 channels
Channel positions : Front: L C R, Side: L R, LFE
Sampling rate : 48.0 KHz
Bit depth : 16 bits
Compression mode : Lossy
Stream size : 306 MiB (7%)
Title : MVO (Lizard Cinema Trade) R5
Language : Russian
Default : Yes
Forced : No
Text #1
ID : 3
Format : UTF-8
Codec ID : S_TEXT/UTF8
Codec ID/Info : UTF-8 Plain Text
Language : Russian
Default : No
Forced : No
Text #2
ID : 4
Format : UTF-8
Codec ID : S_TEXT/UTF8
Codec ID/Info : UTF-8 Plain Text
Language : English
Default : No
Forced : No
Menu
00:00:00.000 : en:Just Another Tough Guy
00:05:32.623 : en:Main Titles
00:09:35.032 : en:Peyt and Jules
00:14:49.805 : en:What is It About the Dark?
00:19:35.507 : en:Blown to Pieces
00:21:46.430 : en:The Hospital
00:28:21.991 : en:Setting Up Shop
00:34:42.997 : en:Rick Retires
00:36:29.812 : en:Playing Pauly
00:50:18.682 : en:The Duplicant Durant
00:57:54.470 : en:The Pink Elephant
01:09:03.055 : en:War at the Warehouse
01:11:19.942 : en:Darkman Gets Some
01:14:22.291 : en:The Enemies In the Air
01:20:24.277 : en:On the Edge
01:29:08.343 : en:End Titles: Call Me Darkman-x264 [info]: frame I:934 Avg QP:15.39 size:118889
x264 [info]: frame P:41132 Avg QP:18.53 size: 55291
x264 [info]: frame B:95157 Avg QP:20.05 size: 20831
ДополнительноИспользуемое программное обеспечение: "Eac3to", "XviD4PSP", "Sonic Foundry Soft Encode", "SupRip", "MKVToolNix"
-Скриншоты
-
[Профиль] [ЛС]
Кто просматривает тему:

Форум Тема Автор Размер
Документальные HD BBC: Внутри человеческого тела / BBC: Inside the Human Body (2011) BDRip [H.264/1080p] [1-4 серии из 4] sergej644 16.92 GB
Документальные HD BBC: Внутри человеческого тела / Inside the Human Body [01-04 из 04] (2011) BDRip sergej644 2.98 GB
Документальные HD BBC: Человеческая Вселенная / Human Universe (Сезон 1 / Серии 2 из 5) (Эндрю Коэн / Andrew Cohen) [2014, Документальный, BDRip 720p] TorrentFilm 3.9 GB
BBC BBC: Чувства человека / BBC: Human senses (Джереми Тёрнер) [2003 г., Документальный, DVDRip] sergej644 2.19 GB
Da Vinci Learning Da Vinci Learning: Музыка мозга / Music of the Brain (Fiona Cochrane) [2009 г., Документальный, человек и культура, SATRip] skorpionN 876 MB
Discovery Discovery: Сверхчеловеческая наука / Super Human Science (2013) HDTVRip (Серия 13) sergej644 273 MB
Зарубежные Hoвый Человек-паук: Высокое напряжение в 3Д / The Amazing Spider-Man 2: Rise of Electro 3D (Марк Уэбб) [2014, Фэнтези, боевик, приключения, комикс, супергерой, BDremux, 1080p] BD3D TorrentFilm 34.18 GB
National Geographic NG: Больше чем фокусы с Ди Эм Си: Горящий человек / Beyond Magic With DMC (2014) SATRip (Серия 5) sergej644 560 MB
Показать сообщения:    

Текущее время: Сегодня 08:28

Часовой пояс: GMT



Вы не можете начинать темы
Вы не можете отвечать на сообщения
Вы не можете редактировать свои сообщения
Вы не можете удалять свои сообщения
Вы не можете голосовать в опросах
Вы не можете прикреплять файлы к сообщениям
Вы не можете скачивать файлы