Человек с бульвара Капуцинов (Алла Сурикова)[1987, комедия, мелодрама, мюзикл, BDRip] 1080p

 
Автор Сообщение

К@питан ®

Пол:

Стаж: 5 лет 6 месяцев

Сообщений: 6090

Откуда: Soviet Union



Награды: Нет

Торрент-статистика

Создавать темы 10-Июл-2015 19:05

[Цитировать]

--Человек с бульвара Капуцинов Информация о фильме
Название: Человек с бульвара Капуцинов
Страна: СССР
Продолжительность: 01:37:47
Перевод: Оригинал.
Год выхода: 1987
Жанр: комедия, мелодрама, мюзикл, вестерн
Режиссер: Алла Сурикова
В ролях:
Андрей Миронов, Александра Яковлева, Николай Караченцов, Олег Табаков, Леонид Ярмольник, Михаил Боярский, Спартак Мишулин, Наталья Крачковская, Михаил Светин, Игорь Кваша, Лев Дуров, Галина Польских, Наталья Фатеева, Альберт Филозов, Борислав Брондуков, Олег Анофриев, Семен Фарада, Александр Иншаков, Н. Астапов, Мария Булатова, Юрий Думчев, Анатолий Калмыков, Михаил Херхеулидзе, Валерий Лысенков, А. Малышев, Юрий Медведев, Александр Павлов, Александр Сластин, Николай Сысоев, Антон Табаков, Игорь Воробьев, Дмитрий Золотухин, Юрий Шумило, Александр Горбачев, Евгений Кулешов, Борис Иванов, Николай Деберо, Станислав Микульский...
О фильме:
В одном из ковбойских городков Дикого Запада с его традиционной стрельбой, сквернословием и мордобоем появляется тихий миссионер кино мистер Фёст. Неведомое прежде ковбоям «синема» до неузнаваемости меняет уклад их жизни, нравы и привычки.
Правда, позднее благородный мистер Фёст будет изгнан недоброжелателями. Но обитатели городка уже никогда не смогут забыть, что на свете есть великое искусство — КИНО…

Файл
Кодек: H264
Качество: BDRip 1080p
Видео: 1920x1080, 5944 Kbps, 23.976 fps
Звук: 48 kHz, AC3, 6c, 448 kbps
Субтитры: Нет

Скриншоты

MI

Общее
Формат                                   : Matroska
Версия формата                           : Version 2
Размер файла                             : 4,37 Гбайт
Продолжительность                        : 1 ч. 37 м.
Общий поток                              : 6394 Кбит/сек
Название фильма                          : Человек с бульвара Капуцинов (1987) BDRip 1080p от Dimok
Дата кодирования                         : UTC 2012-02-15 19:43:17
Программа кодирования                    : mkvmerge v5.2.1 ('A Far Off Place') built on Jan  2 2012 23:21:10
Библиотека кодирования                   : libebml v1.2.3 + libmatroska v1.3.0
Видео
Идентификатор                            : 1
Формат                                   : AVC
Формат/Информация                        : Advanced Video Codec
Профиль формата                          : High@L4.1
Параметр CABAC формата                   : Да
Параметр ReFrames формата                : 4 кадра
Идентификатор кодека                     : V_MPEG4/ISO/AVC
Продолжительность                        : 1 ч. 37 м.
Битрейт                                  : 5944 Кбит/сек
Ширина                                   : 1920 пикселей
Высота                                   : 1080 пикселей
Соотношение сторон                       : 16:9
Частота кадров                           : 23,976 кадра/сек
Цветовое пространство                    : YUV
Субдискретизация насыщенности            : 4:2:0
Битовая глубина                          : 8 бит
Тип развёртки                            : Прогрессивная
Бит/(Пиксели*Кадры)                      : 0.120
Размер потока                            : 3,97 Гбайт (91%)
Библиотека кодирования                   : x264 core 92 r1510 33d382a
Настройки программы                      : cabac=1 / ref=4 / deblock=1:0:0 / analyse=0x3:0x133 / me=umh / subme=10 / psy=1 / psy_rd=1.00:0.10 / mixed_ref=1 / me_range=32 / chroma_me=1 / trellis=2 / 8x8dct=1 / cqm=0 / deadzone=21,11 / fast_pskip=0 / chroma_qp_offset=-3 / threads=6 / sliced_threads=0 / nr=0 / decimate=1 / interlaced=0 / constrained_intra=0 / bframes=6 / b_pyramid=2 / b_adapt=2 / b_bias=0 / direct=3 / wpredb=1 / wpredp=2 / keyint=240 / keyint_min=24 / scenecut=40 / intra_refresh=0 / rc_lookahead=60 / rc=2pass / mbtree=1 / bitrate=5944 / ratetol=1.0 / qcomp=0.65 / qpmin=10 / qpmax=51 / qpstep=4 / cplxblur=20.0 / qblur=0.5 / ip_ratio=1.40 / aq=1:1.00
Язык                                     : Russian
Аудио
Идентификатор                            : 2
Формат                                   : AC-3
Формат/Информация                        : Audio Coding 3
Расширение режима                        : CM (complete main)
Идентификатор кодека                     : A_AC3
Продолжительность                        : 1 ч. 37 м.
Вид битрейта                             : Постоянный
Битрейт                                  : 448 Кбит/сек
Каналы                                   : 6 каналов
Расположение каналов                     : Front: L C R, Side: L R, LFE
Частота                                  : 48,0 КГц
Битовая глубина                          : 16 бит
Метод сжатия                             : С потерями
Размер потока                            : 313 Мбайт (7%)
Заголовок                                : Оригинал
Язык                                     : Russian


Последний раз редактировалось: К@питан (2015-08-07 13:56), всего редактировалось 1 раз
[Профиль] [ЛС]
Показать сообщения:    

Текущее время: Сегодня 15:34

Часовой пояс: GMT



Вы не можете начинать темы
Вы не можете отвечать на сообщения
Вы не можете редактировать свои сообщения
Вы не можете удалять свои сообщения
Вы не можете голосовать в опросах
Вы не можете прикреплять файлы к сообщениям
Вы не можете скачивать файлы