Человек против льва / По следу льва / Man vs. Lion (Скотт Герни / Scott Gurney, Дейдра Герни / Deirdre Gurney) [2014, Документальный, HDTVRip 720p]

 
Автор Сообщение

TorrentFilm ®

Пол:

Стаж: 2 года

Сообщений: 7741



Награды: Нет

Торрент-статистика

Создавать темы 24-Июл-2015 00:05

[Цитировать]

Человек против льва / По следу льва / Man vs. Lion
Год выпуска: 2014
Страна: США
Жанр: Документальный
Канал:
Продолжительность: 00:43:38
Перевод: Профессиональный (дублированный)
Доп. инфо о переводе: студия "Велес"
Режиссер: Скотт Герни / Scott Gurney, Дейдра Герни / Deirdre Gurney
Описание: Совершите путешествие по заказнику Намбити в Африке с Буном Смитом, который наблюдает львов во время их охоты и поиска партнера для спаривания.


Тип релиза: HDTVRip 720p
Контейнер: MKV
Видео: MPEG-4 AVC (H.264), 1280x720 (16:9), 3900 Kbps, 25 fps, 0.169 bit\pixel
Аудио: MP2, 192 Кбит/с, 48 kHz, 2 ch

Исходник: HDTV1080i спасибо LeXa 84

x264 log

...last pass...
x264.exe: --pass 2 --bitrate 3900 --preset veryslow --level 4.1 --ref 8 --merange 32 --bframes 10 --psy-rd 1.05:0.15 --subme 9 --vbv-bufsize 14000 --vbv-maxrate 14000 --partitions p8x8,b8x8,i4x4,i8x8 --sar 1:1 --stats "F:\Temp\0068.log" --output "F:\Temp\0068.264" "F:\Temp\0068.avs"
avs [info]: 1280x720p 1:1 @ 25/1 fps (cfr)
x264 [info]: using SAR=1/1
x264 [info]: using cpu capabilities: MMX2 SSE2Fast SSSE3 SSE4.2 AVX
x264 [info]: profile High, level 4.1
x264 [info]: frame I:444 Avg QP:18.07 size:136319
x264 [info]: frame P:17692 Avg QP:21.25 size: 39739
x264 [info]: frame B:47332 Avg QP:23.96 size: 10834
x264 [info]: consecutive B-frames: 3.3% 6.7% 9.6% 49.2% 14.3% 14.0% 1.9% 0.5% 0.3% 0.1% 0.1%
x264 [info]: mb I I16..4: 5.5% 78.3% 16.3%
x264 [info]: mb P I16..4: 2.5% 17.2% 1.4% P16..4: 41.4% 20.5% 10.1% 0.0% 0.0% skip: 6.8%
x264 [info]: mb B I16..4: 0.3% 1.5% 0.2% B16..8: 36.4% 6.9% 1.8% direct:10.4% skip:42.8% L0:39.4% L1:50.2% BI:10.4%
x264 [info]: 8x8 transform intra:80.6% inter:72.2%
x264 [info]: direct mvs spatial:96.8% temporal:3.2%
x264 [info]: coded y,uvDC,uvAC intra: 77.6% 81.4% 42.3% inter: 27.4% 31.9% 2.6%
x264 [info]: i16 v,h,dc,p: 23% 24% 9% 45%
x264 [info]: i8 v,h,dc,ddl,ddr,vr,hd,vl,hu: 10% 11% 6% 8% 12% 13% 13% 12% 14%
x264 [info]: i4 v,h,dc,ddl,ddr,vr,hd,vl,hu: 11% 15% 3% 8% 12% 13% 13% 11% 14%
x264 [info]: i8c dc,h,v,p: 36% 24% 18% 22%
x264 [info]: Weighted P-Frames: Y:7.4% UV:4.9%
x264 [info]: ref P L0: 58.8% 15.3% 13.5% 3.6% 2.8% 2.2% 2.0% 1.5% 0.3% 0.0%
x264 [info]: ref B L0: 88.5% 7.4% 2.1% 0.8% 0.6% 0.4% 0.2%
x264 [info]: ref B L1: 96.4% 3.6%
x264 [info]: kb/s:3899.30
x264 [total]: encoded 65468 frames, 10.48 fps, 3899.30 kb/s

MediaInfo

GeneralUnique ID : 214717658836942977981578336843870122588 (0xA1891DEB79068223A3FA48A93C3A325C)Complete name : D:\Видео\Флора и фауна\Man vs. Lion HDTVRip-720p.2014.mkvFormat : MatroskaFormat version : Version 2File size : 1.25 GiBDuration : 43mn 38sOverall bit rate : 4 093 KbpsEncoded date : UTC 2015-07-10 11:29:05Writing application : mkvmerge v7.8.0 ('River Man') 32bit built on Apr 3 2015 12:11:22Writing library : libebml v1.3.1 + libmatroska v1.4.2
VideoID : 1Format : AVCFormat/Info : Advanced Video CodecFormat profile : High@L4.1Format settings, CABAC : YesFormat settings, ReFrames : 8 framesCodec ID : V_MPEG4/ISO/AVCDuration : 43mn 38sBit rate : 3 900 KbpsWidth : 1 280 pixelsHeight : 720 pixelsDisplay aspect ratio : 16:9Frame rate mode : ConstantFrame rate : 25.000 fpsColor space : YUVChroma subsampling : 4:2:0Bit depth : 8 bitsScan type : ProgressiveBits/(Pixel*Frame) : 0.169Stream size : 1.16 GiB (93%)Writing library : x264 core 146 r2538 121396cEncoding settings : cabac=1 / ref=8 / deblock=1:0:0 / analyse=0x3:0x113 / me=umh / subme=9 / psy=1 / psy_rd=1.05:0.15 / mixed_ref=1 / me_range=32 / chroma_me=1 / trellis=2 / 8x8dct=1 / cqm=0 / deadzone=21,11 / fast_pskip=1 / chroma_qp_offset=-3 / threads=6 / lookahead_threads=1 / sliced_threads=0 / nr=0 / decimate=1 / interlaced=0 / bluray_compat=0 / constrained_intra=0 / bframes=10 / b_pyramid=2 / b_adapt=2 / b_bias=0 / direct=3 / weightb=1 / open_gop=0 / weightp=2 / keyint=250 / keyint_min=25 / scenecut=40 / intra_refresh=0 / rc_lookahead=60 / rc=2pass / mbtree=1 / bitrate=3900 / ratetol=1.0 / qcomp=0.60 / qpmin=0 / qpmax=69 / qpstep=4 / cplxblur=20.0 / qblur=0.5 / vbv_maxrate=14000 / vbv_bufsize=14000 / nal_hrd=none / filler=0 / ip_ratio=1.40 / aq=1:1.00Default : YesForced : No
AudioID : 2Format : MPEG AudioFormat version : Version 1Format profile : Layer 2Codec ID : A_MPEG/L2Codec ID/Hint : MP2Duration : 43mn 38sBit rate mode : ConstantBit rate : 192 KbpsChannel(s) : 2 channelsSampling rate : 48.0 KHzCompression mode : LossyStream size : 59.9 MiB (5%)Default : YesForced : No

Скриншоты

[Профиль] [ЛС]
Кто просматривает тему:

Форум Тема Автор Размер
Документальные HD BBC: Внутри человеческого тела / BBC: Inside the Human Body (2011) BDRip [H.264/1080p] [1-4 серии из 4] sergej644 16.92 GB
Документальные HD BBC: Внутри человеческого тела / Inside the Human Body [01-04 из 04] (2011) BDRip sergej644 2.98 GB
Документальные HD BBC: Человеческая Вселенная / Human Universe (Сезон 1 / Серии 2 из 5) (Эндрю Коэн / Andrew Cohen) [2014, Документальный, BDRip 720p] TorrentFilm 3.9 GB
BBC BBC: Чувства человека / BBC: Human senses (Джереми Тёрнер) [2003 г., Документальный, DVDRip] sergej644 2.19 GB
Da Vinci Learning Da Vinci Learning: Музыка мозга / Music of the Brain (Fiona Cochrane) [2009 г., Документальный, человек и культура, SATRip] skorpionN 876 MB
Discovery Discovery: Сверхчеловеческая наука / Super Human Science (2013) HDTVRip (Серия 13) sergej644 273 MB
Зарубежные Hoвый Человек-паук: Высокое напряжение в 3Д / The Amazing Spider-Man 2: Rise of Electro 3D (Марк Уэбб) [2014, Фэнтези, боевик, приключения, комикс, супергерой, BDremux, 1080p] BD3D TorrentFilm 34.18 GB
National Geographic NG: Больше чем фокусы с Ди Эм Си: Горящий человек / Beyond Magic With DMC (2014) SATRip (Серия 5) sergej644 560 MB
Показать сообщения:    

Текущее время: Сегодня 18:52

Часовой пояс: GMT



Вы не можете начинать темы
Вы не можете отвечать на сообщения
Вы не можете редактировать свои сообщения
Вы не можете удалять свои сообщения
Вы не можете голосовать в опросах
Вы не можете прикреплять файлы к сообщениям
Вы не можете скачивать файлы