Человек против льва / По следу льва / Man v. Lion / Dinner With Lions / Man vs. Lion (Скотт Герни / Scott Gurney, Дейдра Герни / Deirdre Gurney) [2014, Документальный, HDTV 1080i]

 
Автор Сообщение

TorrentFilm ®

Пол:

Стаж: 2 года 6 месяцев

Сообщений: 7773



Награды: Нет

Торрент-статистика

Создавать темы 02-Мар-2015 00:01

[Цитировать]

Человек против льва
/ По следу льва /

Man v. Lion

/ Dinner With Lions / Man vs. Lion /
-- Год выпуска: 2014
Страна: США
Жанр: Документальный
Продолжительность: 00:43:38
Перевод: Студийный (одноголосый закадровый)
Доп. инфо о переводе: студия "ВЕЛЕС"
Русские субтитры: нет
Режиссер: Скотт Герни / Scott Gurney, Дейдра Герни / Deirdre Gurney
Описание: Совершите путешествие по заказнику Намбити в Африке с Буном Смитом, который наблюдает львов во время их охоты и поиска партнера для спаривания.
Тип релиза: HDTV 1080i
Контейнер: TS
Видео кодек: H.264
Аудио кодек: MP2
Видео: MPEG4 Video (H.264), 1920x1080, 16:9, ~11200 kbps, 25 fps
Аудио RUS: MP2, 192 Кбит/с, 48 kHz, 2 ch
Аудио ENG: MP2, 192 Кбит/с, 48 kHz, 2 ch

MediaInfo

GeneralID : 1 (0x1)Complete name : ...\Человек против льва\Man vs. Lion (Rus, Eng, HDTV-1080i, h264, MP2) [2014].tsFormat : MPEG-TSFile size : 3.70 GiBDuration : 43mn 38sOverall bit rate mode : VariableOverall bit rate : 12.1 Mbps
VideoID : 4113 (0x1011)Menu ID : 1 (0x1)Format : AVCFormat/Info : Advanced Video CodecFormat profile : High@L4.0Format settings, CABAC : YesFormat settings, ReFrames : 4 framesCodec ID : 27Duration : 43mn 38sBit rate : 11.2 MbpsWidth : 1 920 pixelsHeight : 1 080 pixelsDisplay aspect ratio : 16:9Frame rate : 25.000 fpsStandard : ComponentColor space : YUVChroma subsampling : 4:2:0Bit depth : 8 bitsScan type : InterlacedScan order : Top Field FirstBits/(Pixel*Frame) : 0.215Stream size : 3.40 GiB (92%)Color primaries : BT.709Transfer characteristics : BT.709Matrix coefficients : BT.709Color range : Limited
Audio #1ID : 4352 (0x1100)Menu ID : 1 (0x1)Format : MPEG AudioFormat version : Version 1Format profile : Layer 2Codec ID : 3Duration : 43mn 38sBit rate mode : ConstantBit rate : 192 KbpsChannel(s) : 2 channelsSampling rate : 48.0 KHzCompression mode : LossyStream size : 59.9 MiB (2%)Language : English
Audio #2ID : 4353 (0x1101)Menu ID : 1 (0x1)Format : MPEG AudioFormat version : Version 1Format profile : Layer 2Codec ID : 3Duration : 43mn 38sBit rate mode : ConstantBit rate : 192 KbpsChannel(s) : 2 channelsSampling rate : 48.0 KHzCompression mode : LossyStream size : 59.9 MiB (2%)Language : English

Скриншоты

[Профиль] [ЛС]
Кто просматривает тему:

Форум Тема Автор Размер
BBC BBC: Horizon. Исчезнувшие племена человечества / The Lost Tribes Of Humanity [сезон 52 эпизод 16] (Giles Harrison) [2016 г., Документальный, научно-популярный, история, исследования, HDTVRip-AVC 720p] skorpionN 1.57 GB
BBC BBC: Чувства человека / BBC: Human senses (Джереми Тёрнер) [2003 г., Документальный, DVDRip] К@питан 2.19 GB
S.T.A.L.K.E.R. S.T.A.L.K.E.R.: Shadow of Chernobyl - Путь Человека "Возвращение" (2015) PC | RePack by SeregA-Lus Garik014 5.08 GB
Фильмы 2015 года Долина снежного человека / Valley of the Sasquatch (2015) WEB-DLRip | L BOSS 700 MB
Фильмы 2017 года Проект «Снежный человек» / The Bigfoot Project (2017) WEB-DLRip | L BOSS 1.37 GB
История древнего мира Рамзес. Жертва Божьего гнева или человека? / Rameses: Wrath of God or Man? (Tom Pollock) [2004 г., Документальный, постановочный, археология, история, исследования, SATRip] skorpionN 1.2 GB
Зарубежные сериалы Человек в высоком замке / The Man in the High Castle [S02] (2016) WEBRip | Jaskier достали все 6.95 GB
Фильмы 2016 года Человек-комар / A Mosquito-Man (2016) WEBRip | L1 BOSS 1.37 GB
Показать сообщения:    

Текущее время: Сегодня 19:30

Часовой пояс: GMT



Вы не можете начинать темы
Вы не можете отвечать на сообщения
Вы не можете редактировать свои сообщения
Вы не можете удалять свои сообщения
Вы не можете голосовать в опросах
Вы не можете прикреплять файлы к сообщениям
Вы не можете скачивать файлы