Человек-паук 3: Враг в отражении / Spider-Man 3 (Сэм Рэйми / Sam Raimi) [2007, США, фантастика, приключения, боевик, SATRip] [Open Matte] Dub

 
Автор Сообщение

TorrentFilm ®

Пол:

Стаж: 2 года 6 месяцев

Сообщений: 7773



Награды: Нет

Торрент-статистика

Создавать темы 24-Фев-2016 00:08

[Цитировать]

Человек-паук 3: Враг в отражении / Spider-Man 3- Страна: США
Жанр: фантастика, приключения, боевик
Год выпуска: 2007
Продолжительность: 02:08:26-Перевод: Профессиональный (полное дублирование)
Cубтитры: нет-Режиссер: Сэм Рэйми / Sam Raimi-В ролях: Тоби Магуайр, Кирстен Данст, Джеймс Франко, Томас Хейден Чёрч, Тофер Грейс, Брайс Даллас Ховард, Розмари Харрис, Дж.К. Симмонс, Джеймс Кромуэлл, Илья Баскин-Описание: Прошло пять лет с тех пор, как Питер осознал, что «с Великой силой приходит Великая ответственность!», и три года с тех пор, как он отказался быть борцом за справедливость. Но сейчас кажется, Питер прекрасно научился жить несколькими жизнями. Он хорошо учится, Нью-Йорк признал его героем, отношения с Мэри Джейн прочные. Питер даже намеревается сделать ей предложение!
Но к сожалению, его лучший друг Гарри Озборн по-прежнему считает, что именно Человек-паук несет ответственность за безвременную кончину его отца. Гарри намеревается отомстить ему в образе Нового Гоблина. В то же самое время на криминальной сцене Нью-Йорка появляется другой могущественный суперзлодей, известный как Песочный Человек. Когда Человек-паук надевает таинственный черный костюм, его темная, более мстительная сторона полностью поглощает его. Эти трансформации заставляют его встретиться с самым сильным противником - с самим собой…-Сэмпл: http://multi-up.com/1090165-Качество видео: SATRip
Формат видео: AVI
Видео: 704x384 (1.83:1), 25 fps, XviD build 73 ~2225 kbps avg, 0.33 bit/pixel
Аудио: 48.0 KHz, AC3, 2 channels (L, R) ~ 192 kbps-

Благодарности

За помощь в создании релиза благодарим Yаut и tеko

MediaInfo

General
Complete name : D:\Человек-паук-3.avi
Format : AVI
Format/Info : Audio Video Interleave
Format profile : OpenDML
File size : 2.18 GiB
Duration : 2h 8mn
Overall bit rate : 2 429 Kbps
Writing application : VirtualDubMod 1.5.10.3 (build 2550/release)
Writing library : VirtualDubMod build 2550/release
Video
ID : 0
Format : MPEG-4 Visual
Format profile : Advanced Simple@L5
Format settings, BVOP : 2
Format settings, QPel : No
Format settings, GMC : No warppoints
Format settings, Matrix : Custom
Codec ID : XVID
Codec ID/Hint : XviD
Duration : 2h 8mn
Bit rate : 2 225 Kbps
Width : 704 pixels
Height : 384 pixels
Display aspect ratio : 1.85:1
Frame rate : 25.000 fps
Color space : YUV
Chroma subsampling : 4:2:0
Bit depth : 8 bits
Scan type : Progressive
Compression mode : Lossy
Bits/(Pixel*Frame) : 0.329
Stream size : 2.00 GiB (92%)
Writing library : XviD 73
Audio
ID : 1
Format : AC-3
Format/Info : Audio Coding 3
Mode extension : CM (complete main)
Format settings, Endianness : Big
Codec ID : 2000
Duration : 2h 8mn
Bit rate mode : Constant
Bit rate : 192 Kbps
Channel(s) : 2 channels
Channel positions : Front: L R
Sampling rate : 48.0 KHz
Bit depth : 16 bits
Compression mode : Lossy
Stream size : 176 MiB (8%)
Alignment : Split accross interleaves
Interleave, duration : 40 ms (1.00 video frame)
Interleave, preload duration : 500 ms

Скриншоты

[Профиль] [ЛС]
Кто просматривает тему:

Форум Тема Автор Размер
BBC BBC: Horizon. Исчезнувшие племена человечества / The Lost Tribes Of Humanity [сезон 52 эпизод 16] (Giles Harrison) [2016 г., Документальный, научно-популярный, история, исследования, HDTVRip-AVC 720p] skorpionN 1.57 GB
BBC BBC: Чувства человека / BBC: Human senses (Джереми Тёрнер) [2003 г., Документальный, DVDRip] К@питан 2.19 GB
S.T.A.L.K.E.R. S.T.A.L.K.E.R.: Shadow of Chernobyl - Путь Человека "Возвращение" (2015) PC | RePack by SeregA-Lus Garik014 5.08 GB
Фильмы 2015 года Долина снежного человека / Valley of the Sasquatch (2015) WEB-DLRip | L BOSS 700 MB
Фильмы 2017 года Проект «Снежный человек» / The Bigfoot Project (2017) WEB-DLRip | L BOSS 1.37 GB
История древнего мира Рамзес. Жертва Божьего гнева или человека? / Rameses: Wrath of God or Man? (Tom Pollock) [2004 г., Документальный, постановочный, археология, история, исследования, SATRip] skorpionN 1.2 GB
Зарубежные сериалы Человек в высоком замке / The Man in the High Castle [S02] (2016) WEBRip | Jaskier достали все 6.95 GB
Фильмы 2016 года Человек-комар / A Mosquito-Man (2016) WEBRip | L1 BOSS 1.37 GB
Показать сообщения:    

Текущее время: Сегодня 22:53

Часовой пояс: GMT



Вы не можете начинать темы
Вы не можете отвечать на сообщения
Вы не можете редактировать свои сообщения
Вы не можете удалять свои сообщения
Вы не можете голосовать в опросах
Вы не можете прикреплять файлы к сообщениям
Вы не можете скачивать файлы