Человек-паук 3: Враг в отражении / Spider-Man 3 (Сэм Рэйми / Sam Raimi) [2007, США, боевик, фантастика, приключения, BDRip] Dub

 
Автор Сообщение

TorrentFilm ®

Пол:

Стаж: 2 года 6 месяцев

Сообщений: 7773



Награды: Нет

Торрент-статистика

Создавать темы 22-Фев-2016 00:08

[Цитировать]

Человек-паук 3: Враг в отражении / Spider-Man 3
Страна: США
Жанр: боевик, фантастика, приключения
Год выпуска: 2007
Продолжительность: 02:19:11
Перевод: Профессиональный (дублированный)
Cубтитры: нет

Режиссер: Сэм Рэйми / Sam Raimi
В ролях: Тоби Магуайр, Кирстен Данст, Джеймс Франко, Томас Хейден Чёрч, Тофер Грейс, Брайс Даллас Ховард, Розмари Харрис, Дж.К. Симмонс, Джеймс Кромуэлл, Илья Баскин
Описание: Прошло пять лет с тех пор, как Питер осознал, что «с Великой силой приходит Великая ответственность!», и три года с тех пор, как он отказался быть борцом за справедливость. Но сейчас кажется, Питер прекрасно научился жить несколькими жизнями. Он хорошо учится, Нью-Йорк признал его героем, отношения с Мэри Джейн прочные. Питер даже намеревается сделать ей предложение!
Но к сожалению, его лучший друг Гарри Озборн по-прежнему считает, что именно Человек-паук несет ответственность за безвременную кончину его отца. Гарри намеревается отомстить ему в образе Нового Гоблина. В то же самое время на криминальной сцене Нью-Йорка появляется другой могущественный суперзлодей, известный как Песочный Человек. Когда Человек-паук надевает таинственный черный костюм, его темная, более мстительная сторона полностью поглощает его. Эти трансформации заставляют его встретиться с самым сильным противником - с самим собой…

Качество видео: BDRip [Spider-Man.3.2007.1080p.CEE.Blu-ray.4K-Mont]
Формат видео: AVI
Видео: 720x304 (2.37:1), 23.976 fps, XviD build 73 ~1789 kbps avg, 0.34 bit/pixel
Аудио: 48 kHz, AC3 Dolby Digital, 3/2 (L,C,R,l,r) + LFE ch, ~448 kbps

MediaInfo

Общее
Полное имя : H:\Spider-Man.3.2007.bdrip_[2.18]_[teko].avi
Формат : AVI
Формат/Информация : Audio Video Interleave
Профиль формата : OpenDML
Размер файла : 2,18 Гбайт
Продолжительность : 2 ч. 19 м.
Общий поток : 2245 Кбит/сек
Программа кодирования : VirtualDubMod 1.5.10.3 | www.virtualdub-fr.org || (build 2550/release)
Библиотека кодирования : VirtualDubMod build 2550/release
Видео
Идентификатор : 0
Формат : MPEG-4 Visual
Профиль формата : Advanced Simple@L5
Параметр BVOP формата : 2
Параметр QPel формата : Нет
Параметр GMC формата : Без точки перехода
Параметр матрицы формата : Выборочная
Идентификатор кодека : XVID
Идентификатор кодека/Подсказка : XviD
Продолжительность : 2 ч. 19 м.
Битрейт : 1785 Кбит/сек
Ширина : 720 пикселей
Высота : 304 пикселя
Соотношение сторон : 2,35:1
Частота кадров : 23,976 кадра/сек
Цветовое пространство : YUV
Субдискретизация насыщенности : 4:2:0
Битовая глубина : 8 бит
Тип развёртки : Прогрессивная
Метод сжатия : С потерями
Бит/(Пиксели*Кадры) : 0.340
Размер потока : 1,74 Гбайт (80%)
Библиотека кодирования : XviD 73
Аудио
Идентификатор : 1
Формат : AC-3
Формат/Информация : Audio Coding 3
Расширение режима : CM (complete main)
Параметр Endianness формата : Big
Идентификатор кодека : 2000
Продолжительность : 2 ч. 19 м.
Вид битрейта : Постоянный
Битрейт : 448 Кбит/сек
Каналы : 6 каналов
Расположение каналов : Front: L C R, Side: L R, LFE
Частота : 48,0 КГц
Битовая глубина : 16 бит
Метод сжатия : С потерями
Размер потока : 446 Мбайт (20%)
Выравнивание : Разделение по промежуткам
Продолжительность промежутка : 42 мс. (1,00 видеокадр)
Время предзагрузки промежутка : 500 мс.
Релиз группы:
--
[Профиль] [ЛС]
Показать сообщения:    

Текущее время: Сегодня 14:16

Часовой пояс: GMT



Вы не можете начинать темы
Вы не можете отвечать на сообщения
Вы не можете редактировать свои сообщения
Вы не можете удалять свои сообщения
Вы не можете голосовать в опросах
Вы не можете прикреплять файлы к сообщениям
Вы не можете скачивать файлы