Человек-паук 3: Враг в отражении / Spider-Man 3 (Сэм Рэйми / Sam Raimi) [2007, США, Фантастика / Боевик / Приключения, DVB] [Open Matte] Dub

 
Автор Сообщение

TorrentFilm ®

Пол:

Стаж: 2 года 6 месяцев

Сообщений: 7773



Награды: Нет

Торрент-статистика

Создавать темы 10-Фев-2016 00:08

[Цитировать]

Человек-паук 3: Враг в отражении / Spider-Man 3 / Open Matte Страна: США
Жанр: Фантастика / Боевик / Приключения
Год выпуска: 2007
Продолжительность: 02:08:26
Перевод: Профессиональный (дублированный)
Cубтитры: нет
Оригинальная аудиодорожка: нет
Режиссер: Сэм Рэйми / Sam Raimi
В ролях: Тоби Магуайр, Кирстен Данст, Джеймс Франко, Томас Хейден Чёрч, Тофер Грейс, Брайс Даллас Ховард, Розмари Харрис, Дж.К. Симмонс, Джеймс Кромуэлл
Описание: Как долго человек может сражаться с тьмой, пока не обнаружит её внутри себя? Питеру Паркеру, обладающему сверхспособностями Человека-паука, придётся вступить в схватку с новыми противниками — Песочным Человеком, Черной Смертью и скрывающимся под маской Зелёного Гоблина своим заклятым врагом Гарри Осборном. Но главным врагом Человека-паука на этот раз станет... сам Человек-паук.
Доп. информация: Собственная запись с канала СТС. Отличается бОльшим наполнением кадра по высоте в сравнении с BD/DVD.
http://screenshotcomparison.com/comparison/161078
Сэмпл: http://multi-up.com/1088291
Качество видео: DVB
Формат видео: TS
Видео: AVC, 720x576, 4:3, 25 fps, 2736 Kbps
Аудио: Дубляж (mpa, 2 ch), 48000 Hz, 192 Kbps

MediaInfo

Общее
Идентификатор : 1 (0x1)
Полное имя : F:\Downloads\Spider-man 3 (2007) Open Matte.ts
Формат : MPEG-TS
Размер файла : 2,77 Гбайт
Продолжительность : 2 ч. 8 м.
Режим общего битрейта : Переменный
Общий поток : 3083 Кбит/сек
Видео
Идентификатор : 2031 (0x7EF)
Идентификатор меню : 2030 (0x7EE)
Формат : AVC
Формат/Информация : Advanced Video Codec
Профиль формата : Main@L3
Параметр CABAC формата : Да
Параметр ReFrames формата : 3 кадра
Параметр GOP формата : M=4, N=28
Идентификатор кодека : 27
Продолжительность : 2 ч. 8 м.
Битрейт : 2736 Кбит/сек
Ширина : 720 пикселей
Высота : 576 пикселей
Соотношение сторон : 4:3
Частота кадров : 25,000 кадров/сек
Стандарт вещания : Component
Цветовое пространство : YUV
Субдискретизация насыщенности : 4:2:0
Битовая глубина : 8 бит
Тип развёртки : Чересстрочная
Метод сохранения типа развёртки : Раздельные поля
Порядок развёртки : Верхнее поле первое
Бит/(Пиксели*Кадры) : 0.264
Размер потока : 2,46 Гбайт (89%)
Цветовой диапазон : Limited
Основные цвета : BT.601 PAL
Характеристики трансфера : BT.470 System B, BT.470 System G
Коэффициенты матрицы : BT.601
Аудио
Идентификатор : 2032 (0x7F0)
Идентификатор меню : 2030 (0x7EE)
Формат : MPEG Audio
Версия формата : Version 1
Профиль формата : Layer 2
Идентификатор кодека : 3
Продолжительность : 2 ч. 8 м.
Вид битрейта : Постоянный
Битрейт : 192 Кбит/сек
Каналы : 2 канала
Частота : 48,0 КГц
Метод сжатия : С потерями
Размер потока : 176 Мбайт (6%)
Язык : English

Скриншот c названием фильма

Скриншоты

[Профиль] [ЛС]
Показать сообщения:    

Текущее время: Сегодня 21:10

Часовой пояс: GMT



Вы не можете начинать темы
Вы не можете отвечать на сообщения
Вы не можете редактировать свои сообщения
Вы не можете удалять свои сообщения
Вы не можете голосовать в опросах
Вы не можете прикреплять файлы к сообщениям
Вы не можете скачивать файлы