Человек ноября / The November Man (2014) HDTVRip 720p | ATV | D | Чистый звук

 
Автор Сообщение

sergej644 ®

Пол:

Стаж: 4 года 11 месяцев

Сообщений: 6043

Откуда: Soviet Union



Награды: Нет

Торрент-статистика

Создавать темы 10-Фев-2015 09:28

[Цитировать]

Человек ноября / The November Man (2014) HDTVRip 720p | ATV | D | Чистый звук
«Бывших агентов не бывает»
-Год выпуска: 2014
Производство: США / Das Films, Envision Entertainment, Irish DreamTime
Жанр: боевик, триллер, криминал
Режиссер: Роджер Дональдсон
В ролях: Пирс Броснан, Люк Брейси, Ольга Куриленко, Билл Смитрович, Амила Терзимехик, Лазар Ристовски, Медиха Муслиович, Элайза Тейлор, Катерина Скорсоне, Аки Котабе
Описание:
Экс-агент ЦРУ, невольно вернувшись в дело, оказывается в эпицентре международной интриги, затеянной главами разведывательного управления. В их планах — внедрение во внутреннюю политику стран Восточной Европы через кандидата в президенты РФ с помощью шантажа грязным прошлым. На его совести — вторая вспышка войны на Северном Кавказе, жертвы, насилие. Но Питер Дэверо разгадывает тайны нечестной игры…

Продолжительность: 01:43:11
Перевод: Дублированный [Чистый звук]
Cубтитры: Отсутствуют
Качество: HDTVRip [720p]
Видео: MPEG-4 AVC/H.264, 1280x536 (2.40:1), 4300 kbps, 25.000 fps
Аудио 1: Русский/Дублированный, AAC / 2.0 / 132 Kbps / 48.0 KHz
Аудио 2: Русский/Дублированный, AC3 / 2.0 / 192 Kbps / 48.0 KHz
Аудио 3: Английский/Оригинальный, AAC / 6.0 / 216 Kbps / 48.0 KHz

iTunes Meta Tags

Sort Name: The November Man
XID: Apple:vendor_id:2014-681662
Content ID: 681662
Copyright: Das Films, Envision Entertainment, Irish DreamTime
ScreenWriters: Майкл Финч, Карл Гайдусек, Билл Грейнджер
Producers: Шрирам Дас, Бо Ст. Клэр, Брандт Андерсон
Director: Роджер Дональдсон
Cast: Pierce Brosnan (Devereaux), Luke Bracey (Mason), Olga Kurylenko (Alice), Bill Smitrovich (Hanley), Amila Terzimehic (Alexa), Lazar Ristovski (Arkady Federov), Mediha Musliovic (Natalia Ulanova), Eliza Taylor (Sarah), Caterina Scorsone (Celia), Akie Kotabe (Meyers), Will Patton (Perry Weinstein), Patrick Kennedy (Edgar Simpson), Dragan Marinković (Denisov), Ben Willens (Agent Jones), Miloš Timotijević (Fderov's Chief of Staff)
Rating: R
Long Deion: История о бывшем агенте ЦРУ, которого возвращают на службу для очень личной миссии, в ходе которой он обнаруживает, что его врагом является его бывший ученик, а всё происходящее представляет собой смертельно опасную игру с участием сотрудников ЦРУ высокого уровня и избранным, но ещё не вступившим в должность президентом России…
Deion: История о бывшем агенте ЦРУ, которого возвращают на службу для очень личной миссии, в ходе которой он обнаруживает, что его врагом является его бывший ученик, а всё происходящее представляет собой смертельно опасную игру
Release Date: 2014-08-27T08:00:00Z
Genre: Thriller
Artist: Roger Donaldson
Name: Человек ноября
Comments: «Бывших агентов не бывает»

MediaInfo

General
Complete name : C:CREATE264mod1outThe November Man.2014.HDTV.720p.D.NNM.m4v
Format : MPEG-4
Codec ID : M4V
File size : 3.50 GiB
Duration : 1h 43mn
Overall bit rate mode : Variable
Overall bit rate : 4 856 Kbps
Movie name : Человек ноября
Performer : Roger Donaldson
Genre : Thriller
ContentType : Short Film
Deion : История о бывшем агенте ЦРУ, которого возвращают на службу для очень личной миссии, в ходе которой он обнаруживает, что его врагом является его бывший ученик, а всё происходящее представляет собой смертельно опасную игру
Recorded date : UTC 2014-08-27 08:00:00
Encoded date : UTC 2014-10-03 11:19:01
Tagged date : UTC 2014-10-03 11:23:52
Copyright : Das Films, Envision Entertainment, Irish DreamTime
Cover : Yes
Comment : «Бывших агентов не бывает»
ContentRating : mpaa|R|400|
Title/Sort : The November Man
LongDeion : История о бывшем агенте ЦРУ, которого возвращают на службу для очень личной миссии, в ходе которой он обнаруживает, что его врагом является его бывший ученик, а всё происходящее представляет собой смертельно опасную игру с участием сотрудников ЦРУ высокого уровня и избранным, но ещё не вступившим в должность президентом России…
HDVideo : Yes
AppleStoreCatalogID : 681662
Vendor : Apple:vendor_id:2014-681662
Video
ID : 1
Format : AVC
Format/Info : Advanced Video Codec
Format profile : High@L3.1
Format settings, CABAC : Yes
Format settings, ReFrames : 5 frames
Codec ID : avc1
Codec ID/Info : Advanced Video Coding
Duration : 1h 43mn
Bit rate : 4 300 Kbps
Maximum bit rate : 14.7 Mbps
Width : 1 280 pixels
Height : 536 pixels
Display aspect ratio : 2.40:1
Frame rate mode : Constant
Frame rate : 25.000 fps
Color space : YUV
Chroma subsampling : 4:2:0
Bit depth : 8 bits
Scan type : Progressive
Bits/(Pixel*Frame) : 0.251
Stream size : 3.10 GiB (89%)
Writing library : x264 core 130 r2273 b3065e6
Encoding settings : cabac=1 / ref=5 / deblock=1:0:0 / analyse=0x3:0x113 / me=hex / subme=4 / psy=1 / psy_rd=1.00:0.00 / mixed_ref=0 / me_range=16 / chroma_me=1 / trellis=1 / 8x8dct=1 / cqm=0 / deadzone=21,11 / fast_pskip=1 / chroma_qp_offset=0 / threads=4 / lookahead_threads=1 / sliced_threads=0 / nr=0 / decimate=1 / interlaced=0 / bluray_compat=0 / constrained_intra=0 / bframes=3 / b_pyramid=2 / b_adapt=1 / b_bias=0 / direct=3 / weightb=1 / open_gop=0 / weightp=1 / keyint=250 / keyint_min=25 / scenecut=40 / intra_refresh=0 / rc_lookahead=20 / rc=2pass / mbtree=1 / bitrate=4300 / ratetol=1.0 / qcomp=0.60 / qpmin=0 / qpmax=69 / qpstep=4 / cplxblur=20.0 / qblur=0.5 / ip_ratio=1.40 / aq=1:1.00
Language : English
Encoded date : UTC 2014-10-03 11:19:01
Tagged date : UTC 2014-10-03 11:19:43
Audio #1
ID : 2
Format : AAC
Format/Info : Advanced Audio Codec
Format profile : LC
Codec ID : 40
Duration : 1h 43mn
Bit rate mode : Variable
Bit rate : 132 Kbps
Maximum bit rate : 172 Kbps
Channel(s) : 2 channels
Channel positions : Front: L R
Sampling rate : 48.0 KHz
Compression mode : Lossy
Stream size : 98.4 MiB (3%)
Title : AAC DUB
Language : Russian
Encoded date : UTC 2014-10-03 11:17:22
Tagged date : UTC 2014-10-03 11:19:43
Audio #2
ID : 3
Format : AC-3
Format/Info : Audio Coding 3
Mode extension : CM (complete main)
Format settings, Endianness : Big
Codec ID : ac-3
Duration : 1h 43mn
Bit rate mode : Constant
Bit rate : 192 Kbps
Channel(s) : 2 channels
Channel positions : Front: L R
Sampling rate : 48.0 KHz
Bit depth : 16 bits
Compression mode : Lossy
Stream size : 142 MiB (4%)
Title : AC3 DUB
Language : Russian
Encoded date : UTC 2014-10-03 11:19:38
Tagged date : UTC 2014-10-03 11:19:43
Audio #3
ID : 4
Format : AAC
Format/Info : Advanced Audio Codec
Format profile : LC
Codec ID : 40
Duration : 1h 43mn
Bit rate mode : Variable
Bit rate : 216 Kbps
Maximum bit rate : 328 Kbps
Channel(s) : 2 channels
Channel(s)_Original : 6 channels
Channel positions : Front: L C R, Side: L R, LFE
Sampling rate : 48.0 KHz
Compression mode : Lossy
Stream size : 159 MiB (4%)
Title : original
Language : English
Encoded date : UTC 2014-10-03 11:19:41
Tagged date : UTC 2014-10-03 11:19:43

Screenshots

[Профиль] [ЛС]
Кто просматривает тему:

Форум Тема Автор Размер
Документальные HD BBC: Внутри человеческого тела / BBC: Inside the Human Body (2011) BDRip [H.264/1080p] [1-4 серии из 4] sergej644 16.92 GB
Документальные HD BBC: Внутри человеческого тела / Inside the Human Body [01-04 из 04] (2011) BDRip sergej644 2.98 GB
Документальные HD BBC: Человеческая Вселенная / Human Universe (Сезон 1 / Серии 2 из 5) (Эндрю Коэн / Andrew Cohen) [2014, Документальный, BDRip 720p] TorrentFilm 3.9 GB
BBC BBC: Чувства человека / BBC: Human senses (Джереми Тёрнер) [2003 г., Документальный, DVDRip] sergej644 2.19 GB
Da Vinci Learning Da Vinci Learning: Музыка мозга / Music of the Brain (Fiona Cochrane) [2009 г., Документальный, человек и культура, SATRip] skorpionN 876 MB
Discovery Discovery: Сверхчеловеческая наука / Super Human Science (2013) HDTVRip (Серия 13) sergej644 273 MB
Зарубежные Hoвый Человек-паук: Высокое напряжение в 3Д / The Amazing Spider-Man 2: Rise of Electro 3D (Марк Уэбб) [2014, Фэнтези, боевик, приключения, комикс, супергерой, BDremux, 1080p] BD3D TorrentFilm 34.18 GB
National Geographic NG: Больше чем фокусы с Ди Эм Си: Горящий человек / Beyond Magic With DMC (2014) SATRip (Серия 5) sergej644 560 MB
Показать сообщения:    

Текущее время: Сегодня 22:34

Часовой пояс: GMT



Вы не можете начинать темы
Вы не можете отвечать на сообщения
Вы не можете редактировать свои сообщения
Вы не можете удалять свои сообщения
Вы не можете голосовать в опросах
Вы не можете прикреплять файлы к сообщениям
Вы не можете скачивать файлы