Человек ноября / The November Man (Роджер Дональдсон / Roger Donaldson) [2014, США, боевик, триллер, криминал, HDRip] Dub

 
Автор Сообщение

TorrentFilm ®

Пол:

Стаж: 2 года

Сообщений: 7741



Награды: Нет

Торрент-статистика

Создавать темы 29-Дек-2014 00:15

[Цитировать]

Человек ноября / The November Man

Год выпуска: 2014
Страна: США
Жанр: боевик, триллер, криминал
Продолжительность: 01:48:21
Перевод: Професиональный (полное дублирование) Лицензия
Cубтитры: нет
Режиссер: Роджер Дональдсон / Roger Donaldson
В ролях: Пирс Броснан, Люк Брейси, Ольга Куриленко, Билл Смитрович, Амила Терзимехик, Лазар Ристовски, Медиха Муслиович, Элайза Тейлор, Катерина Скорсоне, Аки Котабе
Описание: Экс-агент ЦРУ, невольно вернувшись в дело, оказывается в эпицентре международной интриги, затеянной главами разведывательного управления. В их планах — внедрение во внутреннюю политику стран Восточной Европы через кандидата в президенты РФ с помощью шантажа грязным прошлым. На его совести — вторая вспышка войны на Северном Кавказе, жертвы, насилие. Но Питер Дэверо разгадывает тайны нечестной игры …
Автор: Scarabey
Качество видео: HDRip (исходник BDRip 720p)
Формат видео: AVI
Видео: 688x288 (2.39:1), 23.976 fps, XviD build 73 ~828 kbps avg, 0.17 bit/pixel
Аудио: 48 kHz, MPEG Layer 3, 2 ch, ~128.00 kbps avg

MediaInfo

General
Complete name : D:\Фильмы\Chelovek_noyabryya_2014.HDRip_r5__[Scarabey].avi
Format : AVI
Format/Info : Audio Video Interleave
File size : 749 MiB
Duration : 1h 48mn
Overall bit rate : 966 Kbps
Writing application : VirtualDubMod 1.5.10.3 | www.virtualdub-fr.org || (build 2550/release)
Writing library : VirtualDubMod build 2550/release
Video
ID : 0
Format : MPEG-4 Visual
Format profile : Advanced Simple@L5
Format settings, BVOP : 1
Format settings, QPel : No
Format settings, GMC : No warppoints
Format settings, Matrix : Custom
Codec ID : XVID
Codec ID/Hint : XviD
Duration : 1h 48mn
Bit rate : 828 Kbps
Width : 688 pixels
Height : 288 pixels
Display aspect ratio : 2.40:1
Frame rate : 23.976 fps
Color space : YUV
Chroma subsampling : 4:2:0
Bit depth : 8 bits
Scan type : Progressive
Compression mode : Lossy
Bits/(Pixel*Frame) : 0.174
Stream size : 642 MiB (86%)
Writing library : XviD 73
Audio
ID : 1
Format : MPEG Audio
Format version : Version 1
Format profile : Layer 3
Codec ID : 55
Codec ID/Hint : MP3
Duration : 1h 48mn
Bit rate mode : Constant
Bit rate : 128 Kbps
Channel(s) : 2 channels
Sampling rate : 48.0 KHz
Compression mode : Lossy
Stream size : 99.2 MiB (13%)
Alignment : Aligned on interleaves
Interleave, duration : 42 ms (1.00 video frame)
Interleave, preload duration : 504 ms
Writing library : LAME3.99r
Encoding settings : -m s -V 4 -q 2 -lowpass 17 -b 128

Скриншот с названием фильма

Скриншоты

Сравненияhttp://torrentfilm.net/forum/viewtopic.php?t=4861951 http://screenshotcomparison.com/comparison/104594/picture:0
[Профиль] [ЛС]
Кто просматривает тему:

Форум Тема Автор Размер
Документальные HD BBC: Внутри человеческого тела / BBC: Inside the Human Body (2011) BDRip [H.264/1080p] [1-4 серии из 4] sergej644 16.92 GB
Документальные HD BBC: Внутри человеческого тела / Inside the Human Body [01-04 из 04] (2011) BDRip sergej644 2.98 GB
Документальные HD BBC: Человеческая Вселенная / Human Universe (Сезон 1 / Серии 2 из 5) (Эндрю Коэн / Andrew Cohen) [2014, Документальный, BDRip 720p] TorrentFilm 3.9 GB
BBC BBC: Чувства человека / BBC: Human senses (Джереми Тёрнер) [2003 г., Документальный, DVDRip] sergej644 2.19 GB
Da Vinci Learning Da Vinci Learning: Музыка мозга / Music of the Brain (Fiona Cochrane) [2009 г., Документальный, человек и культура, SATRip] skorpionN 876 MB
Discovery Discovery: Сверхчеловеческая наука / Super Human Science (2013) HDTVRip (Серия 13) sergej644 273 MB
Зарубежные Hoвый Человек-паук: Высокое напряжение в 3Д / The Amazing Spider-Man 2: Rise of Electro 3D (Марк Уэбб) [2014, Фэнтези, боевик, приключения, комикс, супергерой, BDremux, 1080p] BD3D TorrentFilm 34.18 GB
National Geographic NG: Больше чем фокусы с Ди Эм Си: Горящий человек / Beyond Magic With DMC (2014) SATRip (Серия 5) sergej644 560 MB
Показать сообщения:    

Текущее время: Сегодня 22:32

Часовой пояс: GMT



Вы не можете начинать темы
Вы не можете отвечать на сообщения
Вы не можете редактировать свои сообщения
Вы не можете удалять свои сообщения
Вы не можете голосовать в опросах
Вы не можете прикреплять файлы к сообщениям
Вы не можете скачивать файлы