Человек ноября / The November Man (2014) WEB-DLRip [H.264]

 
Автор Сообщение

sergej644 ®

Пол:

Стаж: 4 года 11 месяцев

Сообщений: 6040

Откуда: Soviet Union



Награды: Нет

Торрент-статистика

Создавать темы 04-Ноя-2014 09:38

[Цитировать]

-Человек ноября / The November Man (2014) WEB-DLRip [H.264]-Год выпуска: 2014
Производство: США
Жанр: Боевик, Триллер, Криминал
Дата мировой премьеры: 27 августа 2014
Дата российской премьеры: 17 сентября 2014
Дата выхода DVD релиза: 25 ноября 2014
Режиссер: Роджер Дональдсон
Продюсер: Шрирам Дас, Бо Ст. Клэр, Брандт Андерсон
Актеры: Пирс Броснан, Люк Брейси, Ольга Куриленко, Билл Смитрович, Амила Терзимехик, Лазар Ристовски, Медиха Муслиович, Элайза Тейлор, Катерина Скорсоне, Аки Котабе
Описание фильма:
Экс-агент ЦРУ, невольно вернувшись в дело, оказывается в эпицентре международной интриги, затеянной главами разведывательного управления. В их планах — внедрение во внутреннюю политику стран Восточной Европы через кандидата в президенты РФ с помощью шантажа грязным прошлым. На его совести — вторая вспышка войны на Северном Кавказе, жертвы, насилие. Но Питер Дэверо разгадывает тайны нечестной игры…
Перевод: Дублированный [iTunes Russia]
Субтитры: Отсутствуют

Продолжительность: 01:43:28
Качество видео: WEB-DLRip [H.264]
Видеокодек: MPEG-4 AVC/H.264
Битрейт видео: ~2651 kb/s
Размер кадра: 1024 х 432
Аудио 1: AC3, 6 каналов, 384 Кбит/сек

MediaInfo:

Формат : Matroska
Версия формата : Version 4 / Version 2
Размер файла : 2,19 Гбайт
Продолжительность : 1 ч. 43 м.
Общий поток : 3036 Кбит/сек
Название фильма : Chelovek.Nojabrja.2014.WEB-DLRip-AVC [Tellurian 1]
Дата кодирования : UTC 2014-11-04 07:41:05
Программа кодирования : mkvmerge v7.2.0 ('On Every Street') 64bit built on Sep 13 2014 15:52:10
Библиотека кодирования : libebml v1.3.0 + libmatroska v1.4.1
DURATION : 01:43:28.128000000
NUMBER_OF_FRAMES : 194004
NUMBER_OF_BYTES : 297990144
_STATISTICS_WRITING_APP : mkvmerge v7.2.0 ('On Every Street') 64bit built on Sep 13 2014 15:52:10
_STATISTICS_WRITING_DATE_UTC : 2014-11-04 07:41:05
_STATISTICS_TAGS : BPS DURATION NUMBER_OF_FRAMES NUMBER_OF_BYTES
Видео
Идентификатор : 1
Формат : AVC
Формат/Информация : Advanced Video Codec
Профиль формата : [url=mailto:High@L4.1]High@L4.1[/url]
Параметр CABAC формата : Да
Параметр ReFrames формата : 7 кадров
Идентификатор кодека : V_MPEG4/ISO/AVC
Продолжительность : 1 ч. 43 м.
Битрейт : 2651 Кбит/сек
Ширина : 1024 пикселя
Высота : 432 пикселя
Соотношение сторон : 2,40:1
Режим частоты кадров : Постоянный
Частота кадров : 25,000 кадров/сек
Цветовое пространство : YUV
Субдискретизация насыщенности : 4:2:0
Битовая глубина : 8 бит
Тип развёртки : Прогрессивная
Бит/(Пиксели*Кадры) : 0.240
Размер потока : 1,87 Гбайт (85%)
Библиотека кодирования : x264 core 142 r2431 ac76440
Настройки программы : cabac=1 / ref=7 / deblock=1:-3:-3 / analyse=0x3:0x133 / me=umh / subme=11 / psy=1 / psy_rd=1.00:0.08 / mixed_ref=1 / me_range=32 / chroma_me=1 / trellis=2 / 8x8dct=1 / cqm=0 / deadzone=21,11 / fast_pskip=0 / chroma_qp_offset=-3 / threads=6 / lookahead_threads=1 / sliced_threads=0 / nr=0 / decimate=0 / interlaced=0 / bluray_compat=0 / constrained_intra=0 / bframes=10 / b_pyramid=2 / b_adapt=2 / b_bias=0 / direct=3 / weightb=1 / open_gop=0 / weightp=2 / keyint=250 / keyint_min=25 / scenecut=40 / intra_refresh=0 / rc_lookahead=60 / rc=2pass / mbtree=1 / bitrate=2651 / ratetol=1.0 / qcomp=0.70 / qpmin=0 / qpmax=69 / qpstep=4 / cplxblur=20.0 / qblur=0.5 / vbv_maxrate=50000 / vbv_bufsize=62500 / nal_hrd=none / filler=0 / ip_ratio=1.40 / aq=1:0.80
Default : Да
Forced : Нет
Аудио
Идентификатор : 2
Формат : AC-3
Формат/Информация : Audio Coding 3
Расширение режима : CM (complete main)
Параметр Endianness формата : Big
Идентификатор кодека : A_AC3
Продолжительность : 1 ч. 43 м.
Вид битрейта : Постоянный
Битрейт : 384 Кбит/сек
Каналы : 6 каналов
Расположение каналов : Front: L C R, Side: L R, LFE
Частота : 48,0 КГц
Битовая глубина : 16 бит
Метод сжатия : С потерями
Размер потока : 284 Мбайт (13%)
Язык : Russian
Default : Да
Forced : Нет
Меню
00:00:00.000 : en:Глава 1
00:04:53.000 : en:Глава 2
00:10:24.000 : en:Глава 3
00:15:26.000 : en:Глава 4
00:22:03.000 : en:Глава 5
00:26:27.000 : en:Глава 6
00:31:22.000 : en:Глава 7
00:35:40.000 : en:Глава 8
00:40:26.000 : en:Глава 9
00:45:09.000 : en:Глава 10
00:50:28.000 : en:Глава 11
00:55:29.000 : en:Глава 12
00:59:35.000 : en:Глава 13
01:03:17.000 : en:Глава 14
01:07:08.000 : en:Глава 15
01:12:05.000 : en:Глава 16
01:16:47.000 : en:Глава 17
01:21:36.000 : en:Глава 18
01:26:06.000 : en:Глава 19
01:30:52.000 : en:Глава 20
01:35:09.000 : en:Глава 21
Скриншоты:
Время раздачи: 24/7 (круглосуточно)
[Профиль] [ЛС]
Кто просматривает тему:

Форум Тема Автор Размер
Документальные HD BBC: Внутри человеческого тела / BBC: Inside the Human Body (2011) BDRip [H.264/1080p] [1-4 серии из 4] sergej644 16.92 GB
Документальные HD BBC: Внутри человеческого тела / Inside the Human Body [01-04 из 04] (2011) BDRip sergej644 2.98 GB
Документальные HD BBC: Человеческая Вселенная / Human Universe (Сезон 1 / Серии 2 из 5) (Эндрю Коэн / Andrew Cohen) [2014, Документальный, BDRip 720p] TorrentFilm 3.9 GB
BBC BBC: Чувства человека / BBC: Human senses (Джереми Тёрнер) [2003 г., Документальный, DVDRip] sergej644 2.19 GB
Da Vinci Learning Da Vinci Learning: Музыка мозга / Music of the Brain (Fiona Cochrane) [2009 г., Документальный, человек и культура, SATRip] skorpionN 876 MB
Discovery Discovery: Сверхчеловеческая наука / Super Human Science (2013) HDTVRip (Серия 13) sergej644 273 MB
Зарубежные Hoвый Человек-паук: Высокое напряжение в 3Д / The Amazing Spider-Man 2: Rise of Electro 3D (Марк Уэбб) [2014, Фэнтези, боевик, приключения, комикс, супергерой, BDremux, 1080p] BD3D TorrentFilm 34.18 GB
National Geographic NG: Больше чем фокусы с Ди Эм Си: Горящий человек / Beyond Magic With DMC (2014) SATRip (Серия 5) sergej644 560 MB
Показать сообщения:    

Текущее время: Сегодня 08:50

Часовой пояс: GMT



Вы не можете начинать темы
Вы не можете отвечать на сообщения
Вы не можете редактировать свои сообщения
Вы не можете удалять свои сообщения
Вы не можете голосовать в опросах
Вы не можете прикреплять файлы к сообщениям
Вы не можете скачивать файлы