Человек Мира с Андреем Понкратовым. Испания. Каталонский дух 1 и 2 часть [2014, Документальный, HDTV 1080i] [Россия HD]

 
Автор Сообщение

TorrentFilm ®

Пол:

Стаж: 2 года 6 месяцев

Сообщений: 7773



Награды: Нет

Торрент-статистика

Создавать темы 02-Янв-2015 00:00

[Цитировать]

Человек Мира с Андреем Понкратовым. Испания. Каталонский дух 1 и 2 часть
Год выпуска: 2014
Страна: Россия
Жанр: Документальный
Продолжительность: 00:26:00 серия
Перевод: Не требуется
Описание: Каждый год в Каталонию приезжает столько российских туристов, что Сочи, Геленджику или Туапсе о таком наплыве отдыхающих можно только мечтать. Что такого привлекательного в родине самых извращенных умов мира – Гауди и Дали? И что источает каталонская земля, раз здесь рождаются гении такого уровня? Андрей Понкратов отправился в Каталонию, чтобы во всем разобраться!
Тип релиза: HDTV 1080i
Контейнер: TS
Видео: H264; 1920x1080 (16:9); 25.000 fps; ~7 699 Kbps
Аудио: MPEG Audio 48000Hz stereo 192 Кбит/сек

MediaInfo

GeneralID : 1 (0x1)Complete name : Q:\ДИСК-1\Человек Мира с Андреем Понкратовым\Человек мира с Андреем Понкратовым. Испания. Каталония\Испания. Каталонский дух 1 часть.tsFormat : MPEG-TSFile size : 1.52 GiBDuration : 26mn 11sOverall bit rate mode : VariableOverall bit rate : 8 303 Kbps
VideoID : 2292 (0x8F4)Menu ID : 1 (0x1)Format : AVCFormat/Info : Advanced Video CodecFormat profile : High@L4.0Format settings, CABAC : YesFormat settings, ReFrames : 4 framesCodec ID : 27Duration : 26mn 11sBit rate : 7 699 KbpsWidth : 1 920 pixelsHeight : 1 080 pixelsDisplay aspect ratio : 16:9Frame rate : 25.000 fpsColor space : YUVChroma subsampling : 4:2:0Bit depth : 8 bitsScan type : MBAFFBits/(Pixel*Frame) : 0.149Stream size : 1.41 GiB (93%)
AudioID : 2295 (0x8F7)Menu ID : 1 (0x1)Format : MPEG AudioFormat version : Version 1Format profile : Layer 2Mode : Joint stereoMode extension : Intensity Stereo + MS StereoCodec ID : 3Duration : 26mn 11sBit rate mode : ConstantBit rate : 192 KbpsChannel(s) : 2 channelsSampling rate : 48.0 KHzCompression mode : LossyStream size : 36.0 MiB (2%)Language : English

Скриншоты


[Профиль] [ЛС]
Показать сообщения:    

Текущее время: Сегодня 03:29

Часовой пояс: GMT



Вы не можете начинать темы
Вы не можете отвечать на сообщения
Вы не можете редактировать свои сообщения
Вы не можете удалять свои сообщения
Вы не можете голосовать в опросах
Вы не можете прикреплять файлы к сообщениям
Вы не можете скачивать файлы