Человек Мира с Андреем Понкратовым. Венгерский разговорник 1, 2, 3 части [2015, документальный, HDTV 1080i]

 
Автор Сообщение

TorrentFilm ®

Пол:

Стаж: 2 года 6 месяцев

Сообщений: 7773



Награды: Нет

Торрент-статистика

Создавать темы 28-Апр-2015 00:04

[Цитировать]

Человек Мира с Андреем Понкратовым. Венгерский разговорник 1, 2, 3 части
Год выпуска: 2015
Страна: Россия
Жанр: документальный
Продолжительность: ~ 00:26:00 каждый выпуск
Перевод: Не требуется
Описание: Все знают, что венгерский - один из самых сложных в мире языков. "Полиция" у венгров не полиция, а "рэндерсэг", дословно, "стражи порядка", а "мама" никакая не "мом", а "аня". Лингвистические непохожести создают для иностранцев определенный дискомфорт, но это не повод, чтобы сюда не ехать. Андрей Понкратов, вооружившись ходовыми фразами на ломаном венгерском, отправился знакомиться с жизнью прекрасной страны
Тип релиза: HDTV 1080i
Контейнер: TS
Видео: H264; 1920x1080 (16:9); 25.000 fps; ~7 701 Kbps
Аудио: MPEG Audio 48000Hz stereo 192 Кбит/сек

MediaInfo

GeneralID : 1 (0x1)Complete name : Q:\ДИСК-1\Человек Мира с Андреем Понкратовым\Человек Мира с Андреем Понкратовым. Венгерский разговорник\Человек Мира с Андреем Понкратовым. Венгерский разговорник. 1 часть.tsFormat : MPEG-TSFile size : 1.51 GiBDuration : 26mn 2sOverall bit rate mode : VariableOverall bit rate : 8 306 Kbps
VideoID : 2292 (0x8F4)Menu ID : 1 (0x1)Format : AVCFormat/Info : Advanced Video CodecFormat profile : High@L4.0Format settings, CABAC : YesFormat settings, ReFrames : 4 framesCodec ID : 27Duration : 26mn 2sBit rate : 7 701 KbpsWidth : 1 920 pixelsHeight : 1 080 pixelsDisplay aspect ratio : 16:9Frame rate : 25.000 fpsColor space : YUVChroma subsampling : 4:2:0Bit depth : 8 bitsScan type : MBAFFBits/(Pixel*Frame) : 0.149Stream size : 1.40 GiB (93%)
AudioID : 2295 (0x8F7)Menu ID : 1 (0x1)Format : MPEG AudioFormat version : Version 1Format profile : Layer 2Mode : Joint stereoMode extension : Intensity Stereo + MS StereoCodec ID : 3Duration : 26mn 2sBit rate mode : ConstantBit rate : 192 KbpsChannel(s) : 2 channelsSampling rate : 48.0 KHzCompression mode : LossyStream size : 35.8 MiB (2%)Language : English

Скриншоты



[Профиль] [ЛС]
Показать сообщения:    

Текущее время: Сегодня 02:03

Часовой пояс: GMT



Вы не можете начинать темы
Вы не можете отвечать на сообщения
Вы не можете редактировать свои сообщения
Вы не можете удалять свои сообщения
Вы не можете голосовать в опросах
Вы не можете прикреплять файлы к сообщениям
Вы не можете скачивать файлы