Человек и слово (Евгений Сивоконь) [1973, мультфильм, VHSRip]

 
Автор Сообщение

TorrentFilm ®

Пол:

Стаж: 2 года

Сообщений: 7741



Награды: Нет

Торрент-статистика

Создавать темы 01-Янв-2016 00:24

[Цитировать]

Человек и слово
Страна: СССР
Жанр: мультфильм
Продолжительность: 00:08:28
Год выпуска: 1973
Перевод: Не требуется
Русские субтитры: нет
Режиссёр: Евгений Сивоконь
Описание: Пять коротких сюжетов, наглядно демонстрирующих какое влияние на людей оказывает простое слово. Оно может принизить человека, или наоборот - окрылить, рассорить людей и сдружить вновь.
Качество: VHSRip
Формат: AVI
Видео: 1741 kbps, 640х480 (4:3), 25.000 fps, MPEG-4 Visual (XviD)
Аудио: 96 kbps, 44.1 kHz, 2 channels, MPEG Audio (MP3)
Субтитры: отсутствуют

Подробные технические данные

GeneralComplete name : Человек и слово (1973).aviFormat : AVIFormat/Info : Audio Video InterleaveFile size : 112 MiBDuration : 8mn 28sOverall bit rate : 1 849 KbpsWriting application : VirtualDubMod 1.5.10.2 (build 2540/release)Writing library : VirtualDub build 32842/release
VideoID : 0Format : MPEG-4 VisualFormat profile : Advanced Simple@L4Format settings, BVOP : 2Format settings, QPel : NoFormat settings, GMC : No warppointsFormat settings, Matrix : Default (H.263)Muxing mode : Packed bitstreamCodec ID : XVIDCodec ID/Hint : XviDDuration : 8mn 28sBit rate : 1 741 KbpsWidth : 640 pixelsHeight : 480 pixelsDisplay aspect ratio : 4:3Frame rate : 25.000 fpsColor space : YUVChroma subsampling : 4:2:0Bit depth : 8 bitsScan type : ProgressiveCompression mode : LossyBits/(Pixel*Frame) : 0.227Stream size : 106 MiB (94%)Writing library : XviD 1.2.1 (UTC 2008-12-04)
AudioID : 1Format : MPEG AudioFormat version : Version 1Format profile : Layer 3Mode : Joint stereoMode extension : MS StereoCodec ID : 55Codec ID/Hint : MP3Duration : 8mn 28sBit rate mode : ConstantBit rate : 96.0 KbpsChannel(s) : 2 channelsSampling rate : 44.1 KHzCompression mode : LossyStream size : 5.82 MiB (5%)Alignment : Aligned on interleavesInterleave, duration : 26 ms (0.65 video frame)Interleave, preload duration : 522 ms

Скриншоты

[Профиль] [ЛС]
Кто просматривает тему:

Форум Тема Автор Размер
Документальные HD BBC: Внутри человеческого тела / BBC: Inside the Human Body (2011) BDRip [H.264/1080p] [1-4 серии из 4] sergej644 16.92 GB
Документальные HD BBC: Внутри человеческого тела / Inside the Human Body [01-04 из 04] (2011) BDRip sergej644 2.98 GB
Документальные HD BBC: Человеческая Вселенная / Human Universe (Сезон 1 / Серии 2 из 5) (Эндрю Коэн / Andrew Cohen) [2014, Документальный, BDRip 720p] TorrentFilm 3.9 GB
BBC BBC: Чувства человека / BBC: Human senses (Джереми Тёрнер) [2003 г., Документальный, DVDRip] sergej644 2.19 GB
Da Vinci Learning Da Vinci Learning: Музыка мозга / Music of the Brain (Fiona Cochrane) [2009 г., Документальный, человек и культура, SATRip] skorpionN 876 MB
Discovery Discovery: Сверхчеловеческая наука / Super Human Science (2013) HDTVRip (Серия 13) sergej644 273 MB
Зарубежные Hoвый Человек-паук: Высокое напряжение в 3Д / The Amazing Spider-Man 2: Rise of Electro 3D (Марк Уэбб) [2014, Фэнтези, боевик, приключения, комикс, супергерой, BDremux, 1080p] BD3D TorrentFilm 34.18 GB
National Geographic NG: Больше чем фокусы с Ди Эм Си: Горящий человек / Beyond Magic With DMC (2014) SATRip (Серия 5) sergej644 560 MB
Показать сообщения:    

Текущее время: Сегодня 14:27

Часовой пояс: GMT



Вы не можете начинать темы
Вы не можете отвечать на сообщения
Вы не можете редактировать свои сообщения
Вы не можете удалять свои сообщения
Вы не можете голосовать в опросах
Вы не можете прикреплять файлы к сообщениям
Вы не можете скачивать файлы