Человек и Закон [15.05.2015, Документальный, HDTV 720p]

 
Автор Сообщение

TorrentFilm ®

Пол:

Стаж: 2 года

Сообщений: 7741



Награды: Нет

Торрент-статистика

Создавать темы 17-Май-2015 00:04

[Цитировать]

Человек и Закон- Дата Эфира: 15.05.2015
Страна: Россия
Студия: Первый Канал HD | Телекомпания "Останкино"
Жанр: Документальный
Продолжительность: 0:51:02
Ведущий: Алексей Пиманов-Описание: Общественно-политическая программа "Человек и закон" выходит на главном телеканале страны уже 35 лет (Алексей Пиманов ведет программу с 1996 года). Столь "преклонный возраст" ничуть не мешает программе оставаться одной из самых востребованных и актуальных на отечественном телевидении. Быть может потому, что основные темы - борьба с организованной преступностью, расследования о коррупции в высших эшелонах власти, криминальные истории...-Автор рипа: lrn
Автор записи: riper.am
Сэмпл: sendfile-Тип релиза: HDTV 720p
Контейнер: MKV
Видео: 1280x720 (16:9), 25,000 fps, H264, ~4000 kbps avg, ~0.174 bit/pixel
Аудио: 48 kHz, AC3 Dolby Digital, 2/0 (L,R) ch, ~192.00 kbps avg-

В Выпуске

Парад Победы на Красной площади 9 мая. Перед тем, как выехать на Красную площадь, принимавший парад генерал армии Шойгу перекрестился, после чего режиссер прямой трансляции показал зрителям надвратную икону Спасской башни Кремля. Аналитико-исторический комментарий ведущего.
Брянская область. Стенка на стенку. Драка между русскими и армянами в межнациональный конфликт не переросла. Но вопрос, кто же все-таки виноват - не дает покоя никому. Ни родственникам русского парня, который оказался за решеткой по обвинению в убийстве, ни близким армянского паренька, который стал жертвой. Парадокс. Люди порой сами творят такие глупости и совершают такие опрометчивые шаги - лучше б дома сидели! Честное слово.
ИГИЛ. В распоряжении программы оказалось видео допросов 6-х дагестанцев, побывавших в ИГИЛ и сбежавших оттуда. А в Архангельске объявили в международный розыск вербовщика ИГИЛ. Как выяснили следователи, молодой человек придерживался экстремистских идей и размещал в Интернете материалы, побуждающие к террору в России. В частности, в его личных записях найдены фрагменты с призывом: "Встретишь русского - убей его".
Незаконные лотереи и нелегальные казино. По закону нельзя, но ведь тысячи людей каждый день идут и играют. Чем прикрываются игровые клубы и почему их всё не закрывали. Новое ужесточение законов - теперь даже уборщицу из подпольного казино можно судить. Специальный рейд ГУЭБиПК МВД РФ.
"Слава". Долгожданная премьера на Первом канале. Байопик. И откровенное интервью нашей программе "виновника" - Вячеслава Фетисова - о самых ярких эпизодах большой спортивной жизни.

MediaInfo

GeneralUnique ID : 204217103163071730762492947590656343249 (0x99A2C88DCE2A85108421C85F04DCBCD1)Complete name : E:\uTorrent.Temp\Temp\Chelovek.i.Zakon.(2015.05.15).HDTV.720p.x264-lrn.mkvFormat : MatroskaFormat version : Version 4 / Version 2File size : 1.50 GiBDuration : 51mn 2sOverall bit rate : 4 194 KbpsMovie name : Chelovek.i.Zakon.(2015.05.15).HDTV.720p.x264-lrnEncoded date : UTC 2010-02-22 21:41:31Writing application : mkvmerge v5.9.0 ('On The Loose') built on Dec 9 2012 15:37:01Writing library : libebml v1.3.0 + libmatroska v1.4.0DURATION : 00:51:02.800000000NUMBER_OF_FRAMES : 76570NUMBER_OF_BYTES : 1531637784_STATISTICS_WRITING_APP : mkvmerge v7.7.0 ('Six Voices') 32bit built on Feb 28 2015 23:23:00_STATISTICS_WRITING_DATE_UT : 2015-05-15 18:29:20_STATISTICS_TAGS : BPS DURATION NUMBER_OF_FRAMES NUMBER_OF_BYTES
VideoID : 1Format : AVCFormat/Info : Advanced Video CodecFormat profile : High@L4.1Format settings, CABAC : YesFormat settings, ReFrames : 8 framesCodec ID : V_MPEG4/ISO/AVCDuration : 51mn 2sBit rate : 4 000 KbpsWidth : 1 280 pixelsHeight : 720 pixelsDisplay aspect ratio : 16:9Frame rate mode : ConstantFrame rate : 25.000 fpsColor space : YUVChroma subsampling : 4:2:0Bit depth : 8 bitsScan type : ProgressiveBits/(Pixel*Frame) : 0.174Stream size : 1.40 GiB (93%)Writing library : x264 core 146 r2538 121396cEncoding settings : cabac=1 / ref=8 / deblock=1:-3:-3 / analyse=0x3:0x133 / me=umh / subme=9 / psy=1 / psy_rd=1.00:0.00 / mixed_ref=1 / me_range=32 / chroma_me=1 / trellis=2 / 8x8dct=1 / cqm=0 / deadzone=21,11 / fast_pskip=1 / chroma_qp_offset=-2 / threads=12 / lookahead_threads=2 / sliced_threads=0 / nr=0 / decimate=1 / interlaced=0 / bluray_compat=0 / constrained_intra=0 / bframes=8 / b_pyramid=2 / b_adapt=2 / b_bias=0 / direct=3 / weightb=1 / open_gop=0 / weightp=2 / keyint=250 / keyint_min=25 / scenecut=40 / intra_refresh=0 / rc_lookahead=50 / rc=2pass / mbtree=1 / bitrate=4000 / ratetol=1.0 / qcomp=0.60 / qpmin=0 / qpmax=69 / qpstep=4 / cplxblur=20.0 / qblur=0.5 / vbv_maxrate=62500 / vbv_bufsize=78125 / nal_hrd=none / filler=0 / ip_ratio=1.40 / aq=1:1.00Default : YesForced : No
AudioID : 2Format : AC-3Format/Info : Audio Coding 3Mode extension : CM (complete main)Format settings, Endianness : BigCodec ID : A_AC3Duration : 51mn 2sBit rate mode : ConstantBit rate : 192 KbpsChannel(s) : 2 channelsChannel positions : Front: L RSampling rate : 48.0 KHzCompression mode : LossyStream size : 70.1 MiB (5%)Language : RussianDefault : YesForced : No

x264 log

raw [info]: 1280x720p 1:1 @ 25/1 fps (cfr)x264 [info]: using SAR=1/1x264 [info]: using cpu capabilities: MMX2 SSE2Fast SSSE3 SSE4.2 AVXx264 [info]: profile High, level 4.1x264 [info]: frame I:594 Avg QP:13.77 size:127129x264 [info]: frame P:20608 Avg QP:16.56 size: 39743x264 [info]: frame B:55368 Avg QP:18.86 size: 11507x264 [info]: consecutive B-frames: 3.8% 4.3% 6.1% 62.0% 10.0% 10.4% 1.6% 1.5% 0.3%x264 [info]: mb I I16..4: 5.8% 73.6% 20.5%x264 [info]: mb P I16..4: 2.3% 10.7% 1.3% P16..4: 42.6% 22.2% 13.7% 0.6% 0.2% skip: 6.4%x264 [info]: mb B I16..4: 0.2% 1.0% 0.1% B16..8: 36.6% 9.1% 2.0% direct: 7.2% skip:43.7% L0:41.2% L1:46.3% BI:12.5%x264 [info]: 8x8 transform intra:74.5% inter:59.1%x264 [info]: direct mvs spatial:98.6% temporal:1.4%x264 [info]: coded y,uvDC,uvAC intra: 74.0% 76.1% 47.1% inter: 24.2% 30.3% 4.5%x264 [info]: i16 v,h,dc,p: 36% 18% 7% 39%x264 [info]: i8 v,h,dc,ddl,ddr,vr,hd,vl,hu: 14% 12% 9% 8% 10% 12% 11% 11% 12%x264 [info]: i4 v,h,dc,ddl,ddr,vr,hd,vl,hu: 15% 13% 7% 8% 12% 13% 11% 10% 11%x264 [info]: i8c dc,h,v,p: 40% 26% 20% 14%x264 [info]: Weighted P-Frames: Y:4.3% UV:1.4%x264 [info]: ref P L0: 54.3% 9.7% 16.2% 5.8% 4.6% 3.6% 3.2% 2.3% 0.2% 0.0%x264 [info]: ref B L0: 78.9% 11.3% 4.4% 2.2% 1.6% 1.0% 0.6%x264 [info]: ref B L1: 95.0% 5.0%x264 [info]: kb/s:4000.62encoded 76570 frames, 14.23 fps, 4000.62 kb/s

Скриншоты

-
[Профиль] [ЛС]
Кто просматривает тему:

Форум Тема Автор Размер
Документальные HD BBC: Внутри человеческого тела / BBC: Inside the Human Body (2011) BDRip [H.264/1080p] [1-4 серии из 4] sergej644 16.92 GB
Документальные HD BBC: Внутри человеческого тела / Inside the Human Body [01-04 из 04] (2011) BDRip sergej644 2.98 GB
Документальные HD BBC: Человеческая Вселенная / Human Universe (Сезон 1 / Серии 2 из 5) (Эндрю Коэн / Andrew Cohen) [2014, Документальный, BDRip 720p] TorrentFilm 3.9 GB
BBC BBC: Чувства человека / BBC: Human senses (Джереми Тёрнер) [2003 г., Документальный, DVDRip] sergej644 2.19 GB
Da Vinci Learning Da Vinci Learning: Музыка мозга / Music of the Brain (Fiona Cochrane) [2009 г., Документальный, человек и культура, SATRip] skorpionN 876 MB
Discovery Discovery: Сверхчеловеческая наука / Super Human Science (2013) HDTVRip (Серия 13) sergej644 273 MB
Зарубежные Hoвый Человек-паук: Высокое напряжение в 3Д / The Amazing Spider-Man 2: Rise of Electro 3D (Марк Уэбб) [2014, Фэнтези, боевик, приключения, комикс, супергерой, BDremux, 1080p] BD3D TorrentFilm 34.18 GB
National Geographic NG: Больше чем фокусы с Ди Эм Си: Горящий человек / Beyond Magic With DMC (2014) SATRip (Серия 5) sergej644 560 MB
Показать сообщения:    

Текущее время: Сегодня 16:37

Часовой пояс: GMT



Вы не можете начинать темы
Вы не можете отвечать на сообщения
Вы не можете редактировать свои сообщения
Вы не можете удалять свои сообщения
Вы не можете голосовать в опросах
Вы не можете прикреплять файлы к сообщениям
Вы не можете скачивать файлы