Человек дождя / Rain Man (1988) BDRip 1080p | P, A | Remastered

 
Автор Сообщение

sergej644 ®

Пол:

Стаж: 4 года 11 месяцев

Сообщений: 6035

Откуда: Soviet Union



Награды: Нет

Торрент-статистика

Создавать темы 31-Окт-2014 11:39

[Цитировать]

Информация о фильме
Название: Человек дождя
Оригинальное: Rain Man
Год выхода: 1988
Выпущено: Guber-Peters Company, Mirage Entertainment, Star Partners II Ltd., United Artists
Страна: США
Жанр: Драма
Продолжительность: 02:13:52
Перевод: Профессиональный многоголосый, авторский
Режиссер: Бэрри Левинсон
В ролях: Дастин Хоффман, Том Круз, Валерия Голино, Джералд Р. Молен, Джек Мёрдок, Майкл Д. Робертс, Ральф Сеймур, Люсинда Дженни, Бонни Хант, Ким Робиллард, Бет Грант, Долан Догерти, Маршалл Догерти, Патрик Догерти, Джон-Майл Догерти, Питер Догерти, Эндрю Догерти, Лоретта Вендт Джоливетт, Дональд Э. Джонс, Донна Дж. Диксон, Уильям Монтгомери мл., Элизабет Лоуэр, Майкл С. Холл, Джек В. Коуп, Ник Маццола, Ральф Табакин, Рэй Бэйкер, Исэдор Фиглер, Ральф М. Кардинале, Сэм Рот, Нэнси М. Харви, Кеннет Э. Лауден, Джоко Марселлино, Бланш Сэлтер, Джэйк Хоффман, Ройс Д. Эпплгейт, Джун Кристофер, Анна Матиас, Арчи Хан, Луиза Лешин
-Сюжет фильма
У Чарли, грубоватого и эгоистичного молодого повесы, в наследство от отца остались лишь розовые кусты да «Бьюик» 49-го года. Внезапным «сюрпризом» для него стало открытие того, что львиная доля наследства оставлена отцом его больному аутизмом брату Раймонду. Задавшись целью отобрать свою «справедливую долю» семейного достояния, Чарли похищает старшего брата и держит его заложником. Но то, что было задумано им из эгоизма, перерастает в волшебную одиссею дружбы и самоосмысления, которая разводит границы обособленного мирка Раймонда, а Чарли позволяет вырваться из оков своей некогда бесчувственной души.-Файл
Кодек: x264
Формат: MKV
Качество: BDRip 1080p (Источник: Rain Man (1988) [Remastered] Blu-ray CEE 1080p AVC DTS 5.1)
Видео: MPEG-4 AVC (1.85:1) 1920x1036 pix, 23.976 fps, 10818 kbps
Аудио I: Dolby Digital (5.1) 16 bit, 48 kHz, 448 kbps (MVO "Blu-ray CEE")
Аудио II: Dolby Digital (5.1) 16 bit, 48 kHz, 448 kbps (AVO "Ю. Сербин")
Аудио III: Dolby Digital (5.1) 16 bit, 48 kHz, 640 kbps (Eng "Original")
Субтитры: SRT Русские (форсированные, полные), Английские
Меню: Сохранены оригинальные чаптеры Blu-ray

MI & x264

General
Unique ID : 249345044868685566080620538086036984060 (0xBB961BDCEB757F208F43555FEDD5D0FC)
Format : Matroska
Format version : Version 2
File size : 11.6 GiB
Duration : 2h 13mn
Overall bit rate : 12.4 Mbps
Movie name : Человек дождя (1988) BDRip (1080p)
Encoded date : UTC 2014-10-02 05:04:43
Writing application : mkvmerge v5.8.0 ('No Sleep / Pillow') built on Sep 2 2012 15:37:04
Writing library : libebml v1.2.3 + libmatroska v1.3.0
Video
ID : 1
Format : AVC
Format/Info : Advanced Video Codec
Format profile : High@L4.1
Format settings, CABAC : Yes
Format settings, ReFrames : 4 frames
Codec ID : V_MPEG4/ISO/AVC
Duration : 2h 13mn
Bit rate : 10.8 Mbps
Width : 1 920 pixels
Height : 1 036 pixels
Display aspect ratio : 1.85:1
Frame rate mode : Constant
Frame rate : 23.976 fps
Color space : YUV
Chroma subsampling : 4:2:0
Bit depth : 8 bits
Scan type : Progressive
Bits/(Pixel*Frame) : 0.227
Stream size : 9.89 GiB (86%)
Title : Release by Alex260680
Writing library : x264 core 142 r2479 dd79a61
Encoding settings : cabac=1 / ref=4 / deblock=1:-3:-3 / analyse=0x3:0x133 / me=umh / subme=11 / psy=1 / psy_rd=1.00:0.00 / mixed_ref=1 / me_range=32 / chroma_me=1 / trellis=2 / 8x8dct=1 / cqm=0 / deadzone=21,11 / fast_pskip=0 / chroma_qp_offset=-2 / threads=6 / lookahead_threads=1 / sliced_threads=0 / nr=0 / decimate=0 / interlaced=0 / bluray_compat=0 / constrained_intra=0 / bframes=7 / b_pyramid=2 / b_adapt=2 / b_bias=0 / direct=3 / weightb=1 / open_gop=0 / weightp=2 / keyint=240 / keyint_min=23 / scenecut=40 / intra_refresh=0 / rc=2pass / mbtree=0 / bitrate=10818 / ratetol=1.0 / qcomp=0.60 / qpmin=0 / qpmax=69 / qpstep=4 / cplxblur=20.0 / qblur=0.5 / ip_ratio=1.40 / pb_ratio=1.30 / aq=1:0.80
Language : English
Default : Yes
Forced : No
Audio #1
ID : 2
Format : AC-3
Format/Info : Audio Coding 3
Mode extension : CM (complete main)
Format settings, Endianness : Big
Codec ID : A_AC3
Duration : 2h 13mn
Bit rate mode : Constant
Bit rate : 448 Kbps
Channel(s) : 6 channels
Channel positions : Front: L C R, Side: L R, LFE
Sampling rate : 48.0 KHz
Bit depth : 16 bits
Compression mode : Lossy
Stream size : 429 MiB (4%)
Title : MVO (Blu-ray CEE)
Language : Russian
Default : Yes
Forced : No
Audio #2
ID : 3
Format : AC-3
Format/Info : Audio Coding 3
Mode extension : CM (complete main)
Format settings, Endianness : Big
Codec ID : A_AC3
Duration : 2h 13mn
Bit rate mode : Constant
Bit rate : 448 Kbps
Channel(s) : 6 channels
Channel positions : Front: L C R, Side: L R, LFE
Sampling rate : 48.0 KHz
Bit depth : 16 bits
Compression mode : Lossy
Stream size : 429 MiB (4%)
Title : AVO (Ю. Сербин)
Language : Russian
Default : No
Forced : No
Audio #3
ID : 4
Format : AC-3
Format/Info : Audio Coding 3
Mode extension : CM (complete main)
Format settings, Endianness : Big
Codec ID : A_AC3
Duration : 2h 13mn
Bit rate mode : Constant
Bit rate : 640 Kbps
Channel(s) : 6 channels
Channel positions : Front: L C R, Side: L R, LFE
Sampling rate : 48.0 KHz
Bit depth : 16 bits
Compression mode : Lossy
Stream size : 613 MiB (5%)
Title : Original
Language : English
Default : No
Forced : No
Text #1
ID : 5
Format : UTF-8
Codec ID : S_TEXT/UTF8
Codec ID/Info : UTF-8 Plain Text
Title : Forced
Language : Russian
Default : Yes
Forced : No
Text #2
ID : 6
Format : UTF-8
Codec ID : S_TEXT/UTF8
Codec ID/Info : UTF-8 Plain Text
Title : Full
Language : Russian
Default : No
Forced : No
Text #3
ID : 7
Format : UTF-8
Codec ID : S_TEXT/UTF8
Codec ID/Info : UTF-8 Plain Text
Title : Full
Language : English
Default : No
Forced : No
Menu
00:00:00.000 : en:Chapter 01
00:03:01.390 : en:Chapter 02
00:06:04.781 : en:Chapter 03
00:08:30.844 : en:Chapter 04
00:12:38.216 : en:Chapter 05
00:15:09.909 : en:Chapter 06
00:20:23.431 : en:Chapter 07
00:25:49.506 : en:Chapter 08
00:28:50.896 : en:Chapter 09
00:32:25.777 : en:Chapter 10
00:37:49.309 : en:Chapter 11
00:40:53.534 : en:Chapter 12
00:43:27.855 : en:Chapter 13
00:47:40.316 : en:Chapter 14
00:51:40.639 : en:Chapter 15
00:54:50.245 : en:Chapter 16
00:57:39.748 : en:Chapter 17
01:00:07.437 : en:Chapter 18
01:03:54.122 : en:Chapter 19
01:09:16.778 : en:Chapter 20
01:12:01.859 : en:Chapter 21
01:19:50.452 : en:Chapter 22
01:23:50.525 : en:Chapter 23
01:34:26.035 : en:Chapter 24
01:37:00.523 : en:Chapter 25
01:42:35.483 : en:Chapter 26
01:47:54.927 : en:Chapter 27
01:51:03.115 : en:Chapter 28
01:53:51.867 : en:Chapter 29
01:56:45.832 : en:Chapter 30
02:06:36.088 : en:Chapter 31
02:10:44.170 : en:Chapter 32-x264 [info]: frame I:1063 Avg QP:17.35 size:204917
x264 [info]: frame P:35186 Avg QP:19.95 size: 97736
x264 [info]: frame B:156337 Avg QP:22.09 size: 46070
x264 [info]: consecutive B-frames: 0.9% 1.0% 2.7% 7.1% 18.1% 50.1% 15.0% 5.2%
--
[Профиль] [ЛС]
Кто просматривает тему:

Форум Тема Автор Размер
Документальные HD BBC: Внутри человеческого тела / BBC: Inside the Human Body (2011) BDRip [H.264/1080p] [1-4 серии из 4] sergej644 16.92 GB
Документальные HD BBC: Внутри человеческого тела / Inside the Human Body [01-04 из 04] (2011) BDRip sergej644 2.98 GB
Документальные HD BBC: Человеческая Вселенная / Human Universe (Сезон 1 / Серии 2 из 5) (Эндрю Коэн / Andrew Cohen) [2014, Документальный, BDRip 720p] TorrentFilm 3.9 GB
BBC BBC: Чувства человека / BBC: Human senses (Джереми Тёрнер) [2003 г., Документальный, DVDRip] sergej644 2.19 GB
Da Vinci Learning Da Vinci Learning: Музыка мозга / Music of the Brain (Fiona Cochrane) [2009 г., Документальный, человек и культура, SATRip] skorpionN 876 MB
Discovery Discovery: Сверхчеловеческая наука / Super Human Science (2013) HDTVRip (Серия 13) sergej644 273 MB
Зарубежные Hoвый Человек-паук: Высокое напряжение в 3Д / The Amazing Spider-Man 2: Rise of Electro 3D (Марк Уэбб) [2014, Фэнтези, боевик, приключения, комикс, супергерой, BDremux, 1080p] BD3D TorrentFilm 34.18 GB
National Geographic NG: Больше чем фокусы с Ди Эм Си: Горящий человек / Beyond Magic With DMC (2014) SATRip (Серия 5) sergej644 560 MB
Показать сообщения:    

Текущее время: Сегодня 18:19

Часовой пояс: GMT



Вы не можете начинать темы
Вы не можете отвечать на сообщения
Вы не можете редактировать свои сообщения
Вы не можете удалять свои сообщения
Вы не можете голосовать в опросах
Вы не можете прикреплять файлы к сообщениям
Вы не можете скачивать файлы