Человек-амфибия (Владимир Чеботарев, Геннадий Казанский)[1961,фантастика, фэнтези, мелодрама,BDRemux]

 
Автор Сообщение

sergej644 ®

Пол:

Стаж: 4 года 11 месяцев

Сообщений: 6042

Откуда: Soviet Union



Награды: Нет

Торрент-статистика

Создавать темы 20-Окт-2014 22:56

[Цитировать]

-Человек-амфибия-
Название: Человек-амфибия
Год выхода: 1961
Страна: СССР
Жанр: фантастика, фэнтези, мелодрама
Режиссер: Владимир Чеботарев, Геннадий Казанский
В ролях: Владимир Коренев, Анастасия Вертинская, Михаил Козаков, Николай Симонов, Владлен Давыдов, Анатолий Смиранин, А. Антонян, Анатолий Иванов, Валерий Кудряшов, Николай Кузьмин
-
О фильме:
Однажды талантливый ученый доктор Сальватор спас жизнь маленькому мальчику, пересадив ему жабры акулы. С этого дня Ихтиандр, так назвал своего приемного сына ученый, мог плавать под водой, как рыба, нырять на любую глубину, но ему было тяжело подолгу находиться на суше... Годы спустя по тихому морскому городу поползли слухи о странном существе, наводящем ужас на всех рыбаков, o «морском дьяволе». В это же самое время в городе появляется молодой человек, который мало общается с людьми и прекрасно плавает. Он знакомится с дочерью бедного ныряльщика за жемчугом, красавицей Гутиэре и без памяти в нее влюбляется...-

зрители: 65,4 млн.
премьера(мир): 3 января 1962 года
релиз на DVD: 1 апреля 2011 года
релиз на Blu-Ray: 20 июля 2011 года
-
Информация о файле:
Качество: BD Remux
Продолжительность: 01:36:21
Язык (перевод): оригинальная русская дорожка
Субтитры: русские, английские, французские, немецкие, итальянские, португальские, испанские, болгарские, чешские, румынские
Формат: MKV
Видео: MPEG-4 AVC, NTSC, 1920х1080, 25086 kbps, 23,976 fps, 16:9, High Profile 4.1
Аудио: DTS 5.1, 48 kHz, 1536 kbps, 24-bit
-

MediaInfo

General
UniqueID : 176856590480153122135213655711411575185 (0x850D5720F7B505BEA81F3A4DE5E79991)
Format : Matroska
File size : 17.9 GiB
Duration : 1h 36mn
Overall bit rate : 26.6 Mbps
Movie name : Человек-амфибия
Encoded date : UTC 2011-07-30 13:52:21
Writing application : mkvmerge v4.8.0 ('I Got The...') сборка от May 24 2011 03:12:58
Writing library : libebml v1.2.0 + libmatroska v1.1.0
Video #1
ID : 1
Format : AVC
Format/Info : Advanced Video Codec
Format profile : High@L4.1
Format settings, CABAC : Yes
Format settings, ReFrames : 4 frames
Codec ID : V_MPEG4/ISO/AVC
Duration : 1h 36mn
Bit rate mode : Variable
Bit rate : 24.6 Mbps
Maximum bit rate : 35.0 Mbps
Width : 1 920 pixels
Height : 1 080 pixels
Display aspect ratio : 16:9
Frame rate : 23.976 fps
Standard : NTSC
Color space : YUV
Chroma subsampling : 4:2:0
Bit depth : 8 bits
Scan type : Progressive
Bits/(Pixel*Frame) : 0.494
Stream size : 16.5 GiB (92%)
Title : Человек-амфибия
Language : Russian
Color primaries : BT.709-5, BT.1361, IEC 61966-2-4, SMPTE RP177
Transfer characteristics : BT.709-5, BT.1361
Matrix coefficients : BT.709-5, BT.1361, IEC 61966-2-4 709, SMPTE RP177
Audio #2
ID : 2
Format : DTS
Format/Info : Digital Theater Systems
Codec ID : A_DTS
Duration : 1h 36mn
Bit rate mode : Constant
Bit rate : 1 510 Kbps
Channel(s) : 6 channels
Channel positions : Front: L C R, Side: L R, LFE
Sampling rate : 48.0 KHz
Bit depth : 24 bits
Compression mode : Lossy
Stream size : 1.02 GiB (6%)
Title : Russian (DTS 5.1 @ 1536 kbps)
Language : Russian
Text #3
ID : 3
Format : UTF-8
Codec ID : S_TEXT/UTF8
Codec ID/Info : UTF-8 Plain Text
Title : Russian
Language : Russian
Text #4
ID : 4
Format : UTF-8
Codec ID : S_TEXT/UTF8
Codec ID/Info : UTF-8 Plain Text
Title : English
Language : English
Text #5
ID : 5
Format : UTF-8
Codec ID : S_TEXT/UTF8
Codec ID/Info : UTF-8 Plain Text
Title : French
Language : French
Text #6
ID : 6
Format : UTF-8
Codec ID : S_TEXT/UTF8
Codec ID/Info : UTF-8 Plain Text
Title : German
Language : German
Text #7
ID : 7
Format : UTF-8
Codec ID : S_TEXT/UTF8
Codec ID/Info : UTF-8 Plain Text
Title : Italian
Language : Italian
Text #8
ID : 8
Format : UTF-8
Codec ID : S_TEXT/UTF8
Codec ID/Info : UTF-8 Plain Text
Title : Portuguese
Language : Portuguese
Text #9
ID : 9
Format : UTF-8
Codec ID : S_TEXT/UTF8
Codec ID/Info : UTF-8 Plain Text
Title : Spanish
Language : Spanish
Text #10
ID : 10
Format : UTF-8
Codec ID : S_TEXT/UTF8
Codec ID/Info : UTF-8 Plain Text
Title : Bulgarian
Language : Bulgarian
Text #11
ID : 11
Format : UTF-8
Codec ID : S_TEXT/UTF8
Codec ID/Info : UTF-8 Plain Text
Title : Czech
Language : Czech
Text #12
ID : 12
Format : UTF-8
Codec ID : S_TEXT/UTF8
Codec ID/Info : UTF-8 Plain Text
Title : Romanian
Language : Romanian
-

Скриншоты

-- --
[Профиль] [ЛС]
Кто просматривает тему:

Форум Тема Автор Размер
Документальные HD BBC: Внутри человеческого тела / BBC: Inside the Human Body (2011) BDRip [H.264/1080p] [1-4 серии из 4] sergej644 16.92 GB
Документальные HD BBC: Внутри человеческого тела / Inside the Human Body [01-04 из 04] (2011) BDRip sergej644 2.98 GB
Документальные HD BBC: Человеческая Вселенная / Human Universe (Сезон 1 / Серии 2 из 5) (Эндрю Коэн / Andrew Cohen) [2014, Документальный, BDRip 720p] TorrentFilm 3.9 GB
BBC BBC: Чувства человека / BBC: Human senses (Джереми Тёрнер) [2003 г., Документальный, DVDRip] sergej644 2.19 GB
Da Vinci Learning Da Vinci Learning: Музыка мозга / Music of the Brain (Fiona Cochrane) [2009 г., Документальный, человек и культура, SATRip] skorpionN 876 MB
Discovery Discovery: Сверхчеловеческая наука / Super Human Science (2013) HDTVRip (Серия 13) sergej644 273 MB
Зарубежные Hoвый Человек-паук: Высокое напряжение в 3Д / The Amazing Spider-Man 2: Rise of Electro 3D (Марк Уэбб) [2014, Фэнтези, боевик, приключения, комикс, супергерой, BDremux, 1080p] BD3D TorrentFilm 34.18 GB
National Geographic NG: Больше чем фокусы с Ди Эм Си: Горящий человек / Beyond Magic With DMC (2014) SATRip (Серия 5) sergej644 560 MB
Показать сообщения:    

Текущее время: Сегодня 14:26

Часовой пояс: GMT



Вы не можете начинать темы
Вы не можете отвечать на сообщения
Вы не можете редактировать свои сообщения
Вы не можете удалять свои сообщения
Вы не можете голосовать в опросах
Вы не можете прикреплять файлы к сообщениям
Вы не можете скачивать файлы