Челночницы [01-16 из 16] (2016) HDTVRip

 
Автор Сообщение

достали все ®

Пол:

Стаж: 1 год 8 месяцев

Сообщений: 6613



Награды: 12 (Подробнее)

Top Releaser 2 (Количество: 1) Mega Releaser 3 (Количество: 1) Mega Seeder 4 (Количество: 1)
Торрент-статистика

Создавать темы 15-Окт-2016 08:57

[Цитировать]

Информация о фильме
Оригинальное название: Челночницы
Год выпуска: 2016
Жанр: Драма
Режиссер: Юлия Краснова
В ролях: Мария Порошина, Елена Панова, Ирина Розанова, Светлана Иванова, Зоряна Марченко, Владимир Епифанцев, Юрий Цурило, Илья Соколовский, Вадим Колганов, Константин Юшкевич, Макар Запорожский, Екатерина Травова, Владимир Юматов, Татьяна Агафонова, Артём Фадеев, Валентина Ляпина, Людмила Гнилова, Павел Савинков, Сослан Фидаров, Валерий Шальных, Олег Макаров, Валентина Панина, Виктория Таранец, Александр Чернявский (II), Вера Смолина, Сергей Комаров (II), Елизавета Водолазская, Сергей Цепов, Евгений Пилюгин, Любовь Фирсова, Андрей Лукьянов, Натали Старынкевич, Михаил Богдасаров, Наташа Швец (II), Дмитрий Ячевский, Сергей Краснов, Артур Ваха, Елена Козак
О фильме:
Девяностые, годы всеобщей растерянности и непонимания, стали их временем. Временем челночниц. Продавали, меняли, везли в страну то, чего здесь не было. А не было ничего. И все уходило сразу, слету – детские ползунки и мужские спортивные костюмы, колготки, махровые свитера. Да мало ли что прошло через их руки, оттянутые тяжелыми тюками и сумками..

Страна: Россия
Студия: Кинокомпания «Русское»
Продолжительность: 16 x ~ 00:51:00
Перевод: Не требуется
Файл
Формат: AVI
Качество: HDTVRip
Видео: XviD build 73, 688x384 (16:9), 25.000 fps, ~ 1343 Kbps (~ 0.210 bit/pixel)
Звук: 48.0 kHz, AC3, 2/0 ch, 192 kbps
Субтитры: нет

МедиаИнфо

General
Complete name : Chelnochnicy.2016.XviD.HDTVRip.by.GeneralFilmSeriya.16.avi
Format : AVI
Format/Info : Audio Video Interleave
File size : 556 MiB
Duration : 50mn 18s
Overall bit rate : 1 545 Kbps
Writing application : VirtualDubMod 1.5.10.3 | www.virtualdub-fr.org || (build 2550/release)
Writing library : VirtualDubMod build 2550/release
Video
ID : 0
Format : MPEG-4 Visual
Format profile : Advanced Simple@L5
Format settings, BVOP : 1
Format settings, QPel : No
Format settings, GMC : No warppoints
Format settings, Matrix : Custom
Codec ID : XVID
Codec ID/Hint : XviD
Duration : 50mn 18s
Bit rate : 1 343 Kbps
Width : 688 pixels
Height : 384 pixels
Display aspect ratio : 16:9
Frame rate : 25.000 fps
Color space : YUV
Chroma subsampling : 4:2:0
Bit depth : 8 bits
Scan type : Progressive
Compression mode : Lossy
Bits/(Pixel*Frame) : 0.203
Stream size : 483 MiB (87%)
Writing library : XviD 73
Audio
ID : 1
Format : AC-3
Format/Info : Audio Coding 3
Mode extension : CM (complete main)
Format settings, Endianness : Big
Codec ID : 2000
Duration : 50mn 18s
Bit rate mode : Constant
Bit rate : 192 Kbps
Channel(s) : 2 channels
Channel positions : Front: L R
Sampling rate : 48.0 KHz
Frame rate : 31.250 fps (1536 spf)
Compression mode : Lossy
Stream size : 69.1 MiB (12%)
Alignment : Split accross interleaves
Interleave, duration : 40 ms (1.00 video frame)
Interleave, preload duratio : 500 ms
Релиз от:
[Профиль] [ЛС]
Показать сообщения:    

Текущее время: Сегодня 00:36

Часовой пояс: GMT



Вы не можете начинать темы
Вы не можете отвечать на сообщения
Вы не можете редактировать свои сообщения
Вы не можете удалять свои сообщения
Вы не можете голосовать в опросах
Вы не можете прикреплять файлы к сообщениям
Вы не можете скачивать файлы