Чего хотят мужчины (Андрей Канивченко) [2013, Россия, мелодрама, HDTVRip 720p]

 
Автор Сообщение

TorrentFilm ®

Пол:

Стаж: 2 года

Сообщений: 7741



Награды: Нет

Торрент-статистика

Создавать темы 03-Янв-2016 00:05

[Цитировать]

Чего хотят мужчины
Страна: Россия
Жанр: мелодрама
Год выпуска: 2013
Продолжительность: 01:31:31
Субтитры: нет
Режиссер: Андрей Канивченко
В ролях: Станислав Бондаренко, Полина Стрельникова (Сыркина), Елена Дубровская, Алёна Полькина, Сергей Баталов
Описание: Ася и Алексей - самая счастливая пара. Скоро свадьба. Чтобы подзаработать на нее, Алексей уезжает в Москву, а через месяц сообщает Асе, что встретил другую. Асе кажется, что это нелепость, и нужно обязательно встретиться, чтобы выяснить отношения. Она отправляется за Алексеем. Случайный попутчик говорит Асе, что любимого можно вернуть. Просто нужно знать, чего хотят мужчины от своей избранницы. Небольшие изменения – и вот уже желаннее, чем Ася, для Алексея никого не будет. Ася решается...

Автор рипа / записи: fanatus
Качество видео: HDTVRip 720p
Исходник: Запись с телеканала РОССИЯ HD (16.09.2013)
Контейнер: MKV
Видео: MPEG-4 AVC, 3218 kbps , 1280x720 (16:9), 25.000 fps, 0.140 bit/pixel
Аудио: MPEG Audio, 2 ch, 48 kHz, 192 kbps

MI исходника

General
ID : 1 (0x1)
Complete name : E:\Chego hotjat muzhchiny 1080i.ts
Format : MPEG-TS
File size : 5.30 GiB
Duration : 1h 31mn
Overall bit rate mode : Variable
Overall bit rate : 8 286 Kbps
Maximum Overall bit rate : 35.5 Mbps
Video
ID : 4113 (0x1011)
Menu ID : 1 (0x1)
Format : AVC
Format/Info : Advanced Video Codec
Format profile : High@L4.0
Format settings, CABAC : Yes
Format settings, ReFrames : 3 frames
Format settings, GOP : M=4, N=28
Codec ID : 27
Duration : 1h 31mn
Bit rate mode : Variable
Bit rate : 7 682 Kbps
Maximum bit rate : 40.0 Mbps
Width : 1 920 pixels
Height : 1 080 pixels
Display aspect ratio : 16:9
Frame rate : 25.000 fps
Standard : Component
Color space : YUV
Chroma subsampling : 4:2:0
Bit depth : 8 bits
Scan type : Interlaced
Scan order : Top Field First
Bits/(Pixel*Frame) : 0.148
Stream size : 4.91 GiB (93%)
Color primaries : BT.709-5, BT.1361, IEC 61966-2-4, SMPTE RP177
Transfer characteristics : BT.709-5, BT.1361
Matrix coefficients : BT.709-5, BT.1361, IEC 61966-2-4 709, SMPTE RP177
Audio
ID : 4352 (0x1100)
Menu ID : 1 (0x1)
Format : MPEG Audio
Format version : Version 1
Format profile : Layer 2
Codec ID : 4
Duration : 1h 31mn
Bit rate mode : Constant
Bit rate : 192 Kbps
Channel(s) : 2 channels
Sampling rate : 48.0 KHz
Compression mode : Lossy
Stream size : 126 MiB (2%)

MediaInfo

General
Unique ID : 228890672365077356305519657063751360616 (0xAC32BD6FFA1B0D258860B0C8DB902068)
Complete name : E:\Chego hotjat muzhchiny.2013.x264.HDTVRip.720p.fanatus.mkv
Format : Matroska
Format version : Version 2
File size : 2.18 GiB
Duration : 1h 31mn
Overall bit rate : 3 411 Kbps
Movie name : Chego hotjat muzhchiny (2013) - fanatus
Encoded date : UTC 2013-09-16 12:57:53
Writing application : mkvmerge v3.4.0 ('Rapunzel') сборка от May 15 2010 09:38:20
Writing library : libebml v0.8.0 + libmatroska v0.9.0
Video
ID : 1
Format : AVC
Format/Info : Advanced Video Codec
Format profile : High@L4.1
Format settings, CABAC : Yes
Format settings, ReFrames : 9 frames
Codec ID : V_MPEG4/ISO/AVC
Duration : 1h 31mn
Bit rate : 3 218 Kbps
Width : 1 280 pixels
Height : 720 pixels
Display aspect ratio : 16:9
Frame rate : 25.000 fps
Color space : YUV
Chroma subsampling : 4:2:0
Bit depth : 8 bits
Scan type : Progressive
Bits/(Pixel*Frame) : 0.140
Stream size : 2.01 GiB (92%)
Title : Chego hotjat muzhchiny (2013) - fanatus
Writing library : x264 core 138 r2358 9e941d1
Encoding settings : cabac=1 / ref=9 / deblock=1:-2:-2 / analyse=0x3:0x113 / me=umh / subme=10 / psy=1 / psy_rd=1.00:0.10 / mixed_ref=1 / me_range=32 / chroma_me=1 / trellis=2 / 8x8dct=1 / cqm=0 / deadzone=21,11 / fast_pskip=0 / chroma_qp_offset=-3 / threads=16 / lookahead_threads=4 / sliced_threads=0 / nr=0 / decimate=0 / interlaced=0 / bluray_compat=0 / constrained_intra=0 / bframes=10 / b_pyramid=2 / b_adapt=2 / b_bias=0 / direct=3 / weightb=1 / open_gop=0 / weightp=2 / keyint=250 / keyint_min=25 / scenecut=40 / intra_refresh=0 / rc=2pass / mbtree=0 / bitrate=3218 / ratetol=1.0 / qcomp=0.65 / qpmin=0 / qpmax=69 / qpstep=4 / cplxblur=20.0 / qblur=0.5 / ip_ratio=1.40 / pb_ratio=1.30 / aq=1:0.90
Language : Russian
Default : Yes
Forced : No
Matrix coefficients : BT.709-5, BT.1361, IEC 61966-2-4 709, SMPTE RP177
Audio
ID : 2
Format : MPEG Audio
Format version : Version 1
Format profile : Layer 2
Codec ID : A_MPEG/L2
Codec ID/Hint : MP2
Duration : 1h 31mn
Bit rate mode : Constant
Bit rate : 192 Kbps
Channel(s) : 2 channels
Sampling rate : 48.0 KHz
Compression mode : Lossy
Stream size : 126 MiB (6%)
Title : Original
Language : Russian
Default : Yes
Forced : No

x264 [info]

---[Information] [16.09.2013 12:38:06] raw [info]: 1280x720p 1:1 @ 25/1 fps (cfr)
---[Information] [16.09.2013 12:38:06] x264 [info]: using SAR=1/1
---[Information] [16.09.2013 12:38:06] x264 [info]: using cpu capabilities: MMX2 SSE2Fast LZCNT
---[Information] [16.09.2013 12:38:06] x264 [info]: profile High, level 4.1
---[Information] [16.09.2013 15:44:21] x264 [info]: frame I:871 Avg QP:15.82 size:106614
---[Information] [16.09.2013 15:44:21] x264 [info]: frame P:34347 Avg QP:18.72 size: 33874
---[Information] [16.09.2013 15:44:21] x264 [info]: frame B:102075 Avg QP:21.13 size: 9326
---[Information] [16.09.2013 15:44:21] x264 [info]: consecutive B-frames: 1.4% 3.2% 6.5% 65.0% 11.4% 9.9% 1.5% 0.8% 0.1% 0.1% 0.2%
---[Information] [16.09.2013 15:44:21] x264 [info]: mb I I16..4: 4.8% 81.3% 13.9%
---[Information] [16.09.2013 15:44:21] x264 [info]: mb P I16..4: 1.3% 12.2% 1.3% P16..4: 43.2% 27.0% 11.2% 0.0% 0.0% skip: 3.8%
---[Information] [16.09.2013 15:44:21] x264 [info]: mb B I16..4: 0.2% 0.9% 0.1% B16..8: 37.0% 8.1% 1.7% direct: 5.6% skip:46.4% L0:39.1% L1:47.4% BI:13.6%
---[Information] [16.09.2013 15:44:21] x264 [info]: 8x8 transform intra:81.3% inter:63.9%
---[Information] [16.09.2013 15:44:21] x264 [info]: direct mvs spatial:98.8% temporal:1.2%
---[Information] [16.09.2013 15:44:21] x264 [info]: coded y,uvDC,uvAC intra: 86.9% 67.6% 30.7% inter: 23.1% 15.2% 4.0%
---[Information] [16.09.2013 15:44:21] x264 [info]: i16 v,h,dc,p: 13% 17% 2% 68%
---[Information] [16.09.2013 15:44:21] x264 [info]: i8 v,h,dc,ddl,ddr,vr,hd,vl,hu: 14% 13% 5% 8% 12% 13% 12% 12% 12%
---[Information] [16.09.2013 15:44:21] x264 [info]: i4 v,h,dc,ddl,ddr,vr,hd,vl,hu: 17% 14% 2% 7% 13% 14% 13% 10% 10%
---[Information] [16.09.2013 15:44:21] x264 [info]: i8c dc,h,v,p: 30% 29% 24% 18%
---[Information] [16.09.2013 15:44:21] x264 [info]: Weighted P-Frames: Y:4.4% UV:3.0%
---[Information] [16.09.2013 15:44:21] x264 [info]: ref P L0: 52.5% 10.7% 17.2% 5.5% 4.3% 3.3% 2.8% 1.8% 1.8% 0.2% 0.0%
---[Information] [16.09.2013 15:44:21] x264 [info]: ref B L0: 82.2% 10.4% 3.2% 1.4% 1.0% 0.8% 0.6% 0.3%
---[Information] [16.09.2013 15:44:21] x264 [info]: ref B L1: 95.5% 4.5%
---[Information] [16.09.2013 15:44:21] x264 [info]: kb/s:3216.94
---[Information] [16.09.2013 15:44:21] encoded 137293 frames, 12.28 fps, 3216.94 kb/s

Скриншот c названием фильма

Скриншоты

Source vs Rip




[Профиль] [ЛС]
Кто просматривает тему:

Показать сообщения:    

Текущее время: Сегодня 16:54

Часовой пояс: GMT



Вы не можете начинать темы
Вы не можете отвечать на сообщения
Вы не можете редактировать свои сообщения
Вы не можете удалять свои сообщения
Вы не можете голосовать в опросах
Вы не можете прикреплять файлы к сообщениям
Вы не можете скачивать файлы