Час пик 3 / Rush Hour 3 (Бретт Рэтнер / Brett Ratner) [2007, США, Германия, боевик, триллер, комедия, криминал, BDRip] Dub + Sub (Rus x2, Eng)

 
Автор Сообщение

TorrentFilm ®

Пол:

Стаж: 2 года

Сообщений: 7741



Награды: Нет

Торрент-статистика

Создавать темы 10-Апр-2015 00:02

[Цитировать]

Час пик 3 / Rush Hour 3- Страна: США, Германия
Жанр: боевик, триллер, комедия, криминал
Год выпуска: 2007
Продолжительность: 01:30:47-Перевод: Профессиональный (полное дублирование) [R5]
Cубтитры: Русские [Full, Forced], Английские [Full] (внешние, *.srt)-Режиссер: Бретт Рэтнер / Brett Ratner-В ролях: Крис Такер (Carter), Джеки Чан (Lee), Макс фон Сюдов (Reynard), Хироюки Санада (Kenji), Иван Атталь (George), Юки Кудо (Dragon Lady), Ноэми Ленуар (Genevieve), Чжан Цзинчу (Soo Yung), Ци Ма (Ambassador Han), Дэна Айви (Sister Agnes), Генри О (Master Yu), Миа Тайлер (Marsha)
Описание: Лос-анджелесского полицейского Джеймса Картера, допустившего грубую ошибку при аресте подозреваемого, переводят на гораздо менее престижную должность в дорожной полиции. Тем временем гонконгский полицейский инспектор Ли получает спецзадание: он должен охранять китайского посла Хана, который направляется в Лос-Анджелес, чтобы произнести там речь на саммите Всемирного уголовного суда.
Хан намеревается разоблачить интриги китайской Триады - самого опасного криминального синдиката в мире - и вывести на чистую воду преступных боссов. Представители Триады, разумеется, не дремлют. Они отправляют в Лос-Анджелес наемного убийцу, которому удается ранить посла в тот самый момент, когда он начинает произносить свою разоблачительную речь. Ли бросается вдогонку за преступником. Тем временем Картер, услышав по полицейскому радио сообщение о покушении на посла, мчится на место преступления... и, естественно, только путается под ногами у Ли.-Исходник: BDRemux 1080p
Качество видео: BDRip | Сэмпл |
Формат видео: AVI
Видео: 720x304 (2.37:1), 23.976 fps, XviD build 73 ~1009 kbps avg, 0.19 bit/pixel
Аудио: 48 kHz, MPEG Layer 3, 2 ch, ~128.00 kbps avg |DUB, МОСФИЛЬМ-мастер (R5)|

MediaInfo

General
Complete name : C:\Users\днсднс\Desktop\Chas.Pik.3.2007.BDRip_by_Danres.avi
Format : AVI
Format/Info : Audio Video Interleave
File size : 745 MiB
Duration : 1h 30mn
Overall bit rate : 1 147 Kbps
Writing application : VirtualDubMod 1.5.10.3 | www.virtualdub-fr.org || (build 2550/release)
Writing library : VirtualDubMod build 2550/release
Video
ID : 0
Format : MPEG-4 Visual
Format profile : Advanced Simple@L5
Format settings, BVOP : 2
Format settings, QPel : No
Format settings, GMC : No warppoints
Format settings, Matrix : Custom
Codec ID : XVID
Codec ID/Hint : XviD
Duration : 1h 30mn
Bit rate : 1 010 Kbps
Width : 720 pixels
Height : 304 pixels
Display aspect ratio : 2.35:1
Frame rate : 23.976 fps
Color space : YUV
Chroma subsampling : 4:2:0
Bit depth : 8 bits
Scan type : Progressive
Compression mode : Lossy
Bits/(Pixel*Frame) : 0.192
Stream size : 656 MiB (88%)
Writing library : XviD 73
Audio
ID : 1
Format : MPEG Audio
Format version : Version 1
Format profile : Layer 3
Codec ID : 55
Codec ID/Hint : MP3
Duration : 1h 30mn
Bit rate mode : Constant
Bit rate : 128 Kbps
Channel(s) : 2 channels
Sampling rate : 48.0 KHz
Compression mode : Lossy
Stream size : 83.1 MiB (11%)
Alignment : Aligned on interleaves
Interleave, duration : 42 ms (1.00 video frame)
Interleave, preload duration : 504 ms
Writing library : LAME3.99r
Encoding settings : -m s -V 4 -q 2 -lowpass 17 -b 128

Сравнение[url=http://torrentfilm.net/forum/viewtopic.php?t=2882302]http://torrentfilm.net/forum/viewtopic.php?t=2882302[/url] [b][url=http://screenshotcomparison.com/comparison/119000/picture:0]http://screenshotcomparison.com/comparison/119000/


-
-ДРУЗЬЯ! ПОЖАЛУЙСТА, НЕ УХОДИТЕ С РАЗДАЧИ КАК МОЖНО ДОЛЬШЕ!--
[Профиль] [ЛС]

Создавать темы 06-Авг-2015 22:37 (спустя 3 месяца 26 дней)

Топик был перенесен из форума Фильмы до 2014 года в форум Фильмы до 2012 года
sergej644
 
Кто просматривает тему:

Показать сообщения:    

Текущее время: Сегодня 02:14

Часовой пояс: GMT



Вы не можете начинать темы
Вы не можете отвечать на сообщения
Вы не можете редактировать свои сообщения
Вы не можете удалять свои сообщения
Вы не можете голосовать в опросах
Вы не можете прикреплять файлы к сообщениям
Вы не можете скачивать файлы