Час пик 3 / Rush Hour 3 (Бретт Рэтнер / Brett Ratner) [2007, США, Германия, боевик, триллер, комедия, криминал, BDRip-AVC] Dub + AVO (А. Гаврилов) + AVO (В. Королёв) + Original Eng + Sub (Rus x2, Eng)

 
Автор Сообщение

TorrentFilm ®

Пол:

Стаж: 2 года

Сообщений: 7741



Награды: Нет

Торрент-статистика

Создавать темы 29-Мар-2015 00:02

[Цитировать]

Час пик 3 / Rush Hour 3- Страна: США, Германия
Жанр: боевик, триллер, комедия, криминал
Год выпуска: 2007
Продолжительность: 01:30:47-Перевод №1: Профессиональный (дублированный) [МОСФИЛЬМ-мастер]
Перевод №2: Авторский (одноголосый закадровый) [А. Гаврилов]
Перевод №3: Авторский (одноголосый закадровый) [В. Королёв]
Оригинальная аудиодорожка: английский
Cубтитры: Русские [Full, Forced], Английские [SDH]-Режиссер: Бретт Рэтнер / Brett Ratner-В ролях: Крис Такер (Carter), Джеки Чан (Lee), Макс фон Сюдов (Reynard), Хироюки Санада (Kenji), Иван Атталь (George), Юки Кудо (Dragon Lady), Ноэми Ленуар (Genevieve), Чжан Цзинчу (Soo Yung), Ци Ма (Ambassador Han), Дэна Айви (Sister Agnes), Генри О (Master Yu), Миа Тайлер (Marsha)
Описание: Лос-анджелесского полицейского Джеймса Картера, допустившего грубую ошибку при аресте подозреваемого, переводят на гораздо менее престижную должность в дорожной полиции. Тем временем гонконгский полицейский инспектор Ли получает спецзадание: он должен охранять китайского посла Хана, который направляется в Лос-Анджелес, чтобы произнести там речь на саммите Всемирного уголовного суда.
Хан намеревается разоблачить интриги китайской Триады - самого опасного криминального синдиката в мире - и вывести на чистую воду преступных боссов. Представители Триады, разумеется, не дремлют. Они отправляют в Лос-Анджелес наемного убийцу, которому удается ранить посла в тот самый момент, когда он начинает произносить свою разоблачительную речь. Ли бросается вдогонку за преступником. Тем временем Картер, услышав по полицейскому радио сообщение о покушении на посла, мчится на место преступления... и, естественно, только путается под ногами у Ли.-Исходник: BDRemux 1080p
Качество видео: BDRip-AVC | Сэмпл |
Формат видео: MKV
Видео: AVC, 1104x460 (2.40:1), 23.976 fps, 4 250 Kbps (0.350 bit/pixel)
Аудио #1: 48.0 kHz, AC3 Dolby Digital, 3/2 (L,C,R,l,r) + LFE ch, ~448 kbps |DUB, МОСФИЛЬМ-мастер|
Аудио #2: 48.0 kHz, AC3 Dolby Digital, 3/2 (L,C,R,l,r) + LFE ch, ~448 kbps |ENG|-Размер: 3.33 Gb-Аудио #3: 48.0 kHz, AC3 Dolby Digital, 3/2 (L,C,R,l,r) + LFE ch, ~448 kbps |AVO, Гаврилов Андрей| – отдельно
Аудио #4: 48.0 kHz, AC3 Dolby Digital, 3/2 (L,C,R,l,r) + LFE ch, ~448 kbps |AVO, Королёв Владимир| – отдельно
Формат субтитров: softsub (SRT)

MediaInfo | x264x264

raw [info]: 1104x460p 1:1 @ 24000/1001 fps (cfr)
x264 [info]: using SAR=1/1
x264 [info]: using cpu capabilities: MMX2 SSE2Fast SSSE3 SSE4.2 AVX
x264 [info]: profile High, level 4.1
x264 [info]: frame I:1290 Avg QP:15.33 size: 75515
x264 [info]: frame P:29672 Avg QP:17.60 size: 35436
x264 [info]: frame B:99646 Avg QP:19.28 size: 18213
x264 [info]: consecutive B-frames: 2.4% 3.1% 7.2% 28.8% 19.6% 32.3% 4.7% 1.4% 0.3% 0.3% 0.0% 0.0% 0.1%
x264 [info]: mb I I16..4: 10.6% 70.0% 19.3%
x264 [info]: mb P I16..4: 0.7% 20.8% 2.3% P16..4: 24.6% 30.7% 12.6% 0.0% 0.0% skip: 8.3%
x264 [info]: mb B I16..4: 0.1% 4.0% 0.3% B16..8: 31.0% 24.5% 5.8% direct: 8.8% skip:25.5% L0:40.5% L1:40.4% BI:19.1%
x264 [info]: 8x8 transform intra:86.6% inter:55.4%
x264 [info]: coded y,uvDC,uvAC intra: 94.3% 91.6% 81.4% inter: 40.8% 30.3% 12.9%
x264 [info]: i16 v,h,dc,p: 43% 11% 10% 37%
x264 [info]: i8 v,h,dc,ddl,ddr,vr,hd,vl,hu: 10% 9% 11% 9% 13% 12% 12% 11% 13%
x264 [info]: i4 v,h,dc,ddl,ddr,vr,hd,vl,hu: 13% 9% 7% 8% 14% 14% 13% 10% 12%
x264 [info]: i8c dc,h,v,p: 49% 19% 16% 16%
x264 [info]: Weighted P-Frames: Y:3.4% UV:2.3%
x264 [info]: ref P L0: 44.8% 11.2% 17.3% 6.5% 5.2% 3.5% 3.0% 1.7% 1.5% 1.2% 1.1% 0.9% 0.8% 0.7% 0.7% 0.1%
x264 [info]: ref B L0: 76.8% 10.0% 4.2% 2.4% 1.9% 1.3% 1.0% 0.6% 0.5% 0.4% 0.3% 0.3% 0.2% 0.1%
x264 [info]: ref B L1: 94.4% 5.6%
x264 [info]: kb/s:4352.39
x264 [total]: encoded 130608 frames, 2.71 fps, 4352.39 kb/s
General
Unique ID : 180030730382724713628047995082688699095 (0x8770A84EFF3F32F699DD8B69AF901AD7)
Complete name : C:\Users\днсднс\Desktop\Chas.Pik.3.2007.BDRip-AVC_by_Danres-tRuAVC\Chas.Pik.3.2007.BDRip-AVC_by_Danres.mkv
Format : Matroska
Format version : Version 4 / Version 2
File size : 3.33 GiB
Duration : 1h 30mn
Overall bit rate : 5 251 Kbps
Encoded date : UTC 2015-03-21 09:44:12
Writing application : mkvmerge v7.6.0 ('Garden of Dreams') 32bit built on Feb 11 2015 00:18:47
Writing library : libebml v1.3.1 + libmatroska v1.4.2
DURATION : 01:26:58.380000000
NUMBER_OF_FRAMES : 1608
NUMBER_OF_BYTES : 49929
_STATISTICS_WRITING_APP : mkvmerge v7.6.0 ('Garden of Dreams') 32bit built on Feb 11 2015 00:18:47
_STATISTICS_WRITING_DATE_UTC : 2015-03-21 09:44:12
_STATISTICS_TAGS : BPS DURATION NUMBER_OF_FRAMES NUMBER_OF_BYTES
Video
ID : 1
Format : AVC
Format/Info : Advanced Video Codec
Format profile : High@L4.1
Format settings, CABAC : Yes
Format settings, ReFrames : 15 frames
Codec ID : V_MPEG4/ISO/AVC
Duration : 1h 30mn
Bit rate : 4 250 Kbps
Width : 1 104 pixels
Height : 460 pixels
Display aspect ratio : 2.40:1
Frame rate mode : Constant
Frame rate : 23.976 fps
Color space : YUV
Chroma subsampling : 4:2:0
Bit depth : 8 bits
Scan type : Progressive
Bits/(Pixel*Frame) : 0.350
Stream size : 2.70 GiB (81%)
Writing library : x264 core 144 r2525 40bb568
Encoding settings : cabac=1 / ref=15 / deblock=1:-2:-2 / analyse=0x3:0x113 / me=umh / subme=11 / psy=1 / psy_rd=0.95:0.05 / mixed_ref=1 / me_range=48 / chroma_me=1 / trellis=2 / 8x8dct=1 / cqm=0 / deadzone=21,11 / fast_pskip=0 / chroma_qp_offset=-3 / threads=6 / lookahead_threads=1 / sliced_threads=0 / nr=0 / decimate=1 / interlaced=0 / bluray_compat=0 / constrained_intra=0 / bframes=12 / b_pyramid=2 / b_adapt=2 / b_bias=0 / direct=1 / weightb=1 / open_gop=0 / weightp=2 / keyint=240 / keyint_min=23 / scenecut=40 / intra_refresh=0 / rc_lookahead=60 / rc=crf / mbtree=0 / crf=17.4 / qcomp=0.65 / qpmin=0 / qpmax=69 / qpstep=4 / vbv_maxrate=50000 / vbv_bufsize=62500 / crf_max=0.0 / nal_hrd=none / filler=0 / ip_ratio=1.25 / pb_ratio=1.15 / aq=3:0.85
Default : Yes
Forced : No
Color primaries : BT.709
Transfer characteristics : BT.709
Matrix coefficients : BT.709
Audio #1
ID : 2
Format : AC-3
Format/Info : Audio Coding 3
Mode extension : CM (complete main)
Format settings, Endianness : Big
Codec ID : A_AC3
Duration : 1h 30mn
Bit rate mode : Constant
Bit rate : 448 Kbps
Channel(s) : 6 channels
Channel positions : Front: L C R, Side: L R, LFE
Sampling rate : 48.0 KHz
Bit depth : 16 bits
Compression mode : Lossy
Stream size : 291 MiB (9%)
Title : DUB
Language : Russian
Default : Yes
Forced : No
Audio #2
ID : 3
Format : AC-3
Format/Info : Audio Coding 3
Mode extension : CM (complete main)
Format settings, Endianness : Big
Codec ID : A_AC3
Duration : 1h 30mn
Bit rate mode : Constant
Bit rate : 448 Kbps
Channel(s) : 6 channels
Channel positions : Front: L C R, Side: L R, LFE
Sampling rate : 48.0 KHz
Bit depth : 16 bits
Compression mode : Lossy
Stream size : 291 MiB (9%)
Title : Original
Language : English
Default : No
Forced : No
Text #1
ID : 4
Format : UTF-8
Codec ID : S_TEXT/UTF8
Codec ID/Info : UTF-8 Plain Text
Title : Forced
Language : Russian
Default : Yes
Forced : No
Text #2
ID : 5
Format : UTF-8
Codec ID : S_TEXT/UTF8
Codec ID/Info : UTF-8 Plain Text
Title : Full
Language : Russian
Default : No
Forced : No
Text #3
ID : 6
Format : UTF-8
Codec ID : S_TEXT/UTF8
Codec ID/Info : UTF-8 Plain Text
Title : SDH
Language : English
Default : No
Forced : NoСкриншоты | СравнениеСравнениеSource

Danres (Encode)
http://torrentfilm.net/forum/viewtopic.php?t=1915269 http://screenshotcomparison.com/comparison/117751-
-
-Релиз группы: --ДРУЗЬЯ! ПОЖАЛУЙСТА, НЕ УХОДИТЕ С РАЗДАЧИ КАК МОЖНО ДОЛЬШЕ!--
[Профиль] [ЛС]

Создавать темы 06-Авг-2015 22:40 (спустя 4 месяца 8 дней)

Топик был перенесен из форума Фильмы до 2014 года в форум Фильмы до 2012 года
sergej644
 
Кто просматривает тему:

Показать сообщения:    

Текущее время: Сегодня 06:16

Часовой пояс: GMT



Вы не можете начинать темы
Вы не можете отвечать на сообщения
Вы не можете редактировать свои сообщения
Вы не можете удалять свои сообщения
Вы не можете голосовать в опросах
Вы не можете прикреплять файлы к сообщениям
Вы не можете скачивать файлы