Час пик - Трилогия / Rush Hour Triple Pack (1998-2007) BDRip 1080p | D, P, P2, A

 
Автор Сообщение

BOSS ®

Пол:

Стаж: 2 года 1 месяц

Сообщений: 3735

Откуда: ODESSA



Награды: 20 (Подробнее)

Top Keeper 3 (Количество: 1) Mega Seeder 4 (Количество: 1) Mega Seeder 2 (Количество: 1)
Торрент-статистика

Создавать темы 28-Окт-2015 05:37

[Цитировать]

Час пик / Rush Hour (1998) BDRip 1080p:


Информация о фильме
Название: Час пик
Оригинальное: Rush Hour
Год выхода: 1998
Страна: США
Жанр: Боевик, комедия
Продолжительность: 01:37:49
Перевод: Профессиональный (полное дублирование), Профессиональный (многоголосый закадровый), Профессиональный (двухголосый закадровый), Авторский (одноголосый закадровый)
Субтитры: Русские, английские
Режиссер: Бретт Ратнер / Brett Ratner
В ролях: Джеки Чан, Крис Такер, Элизабет Пенья, Том Уилкинсон, Марк Ролстон, Филип Бэйкер Холл, Кен Люн, Ци Ма, Роберт Литман, Майкл Чоу, Джулия Хсю, Крис Пенн, Кай Леннокс, Ларри Салливан, Янг Лин, Роджер Фэн, Джордж Чунг, Люси Лин, Рекс Линн, Джейсон Дэвис, Джон Хоукс, Джин Ле Белл, Вейн Кинг, Мэнни Перри, Кевин Л. Джексон, Рональд Д. Браун, Клифтон Пауэлл, Мэттью Бэрри, Стэнли ДеСантис, Дэн Мартин, Кевин Лоу, Билли Дэвлин, Томми Буш, Бэрри Шебака Хенли, Альберт Вонг, Аи Ван, Лидия Лук, Сумико Чан, Чан Ман Чинг, Кен Ло, Стюарт Ли, Чунг Чи Ли, Энди Чэн, Кристин ЭнДжи, Фрэнсис Фонг, Роберт Котечки, Майк Эшли, Ада Таи, Арлин Таи, Нина Амери, Стефен Блекхарт
Описание: В Лос-Анджелесе злодеи похищают малолетнюю дочь китайского консула, которую в Гонконге учил кунг-фу инспектор Ли. Консул вызывает Ли в Америку, чтобы тот принял участие в освобождении девочки. Агенты ФБР обратились к полиции с просьбой выделить им самого никчемного сотрудника, чтобы тот взял китайца на себя и показал ему достопримечательности, а главное, не позволил вмешиваться в их дела. Им оказывается самый болтливый полицейский Картер. Естественно, после ряда разногласий и недоразумений они объединяют усилия и всерьез берутся за вызволение заложницы.

Качество: BDRip 1080p
Видео: MPEG4 Video (H264), 1920x784, 23.976fps, 12.5 Mbps
Аудио #1: Русский: Dolby AC3, 48000 Hz, 6ch, 448 kbps - Дубляж
Аудио #2: Русский: Dolby AC3, 48000 Hz, 2ch, 192 kbps - Многоголосый закадровый, ОРТ
Аудио #3: Русский: Dolby AC3, 48000 Hz, 2ch, 192 kbps - Двухголосый, SDI Media
Аудио #4: Русский: Dolby AC3, 48000 Hz, 6ch, 448 kbps - Одноголосый закадровый, Ю. Живов
Аудио #5: Русский: DTS, 48000 Hz, 6ch, 768 kbps - Одноголосый закадровый, П. Санаев
Аудио #6: Украинский: Dolby AC3, 48000 Hz, 6ch, 384 kbps - Двухголосый, Новый канал
Аудио #7: Английский: DTS, 48000 Hz, 6ch, 1536 kbps
Формат субтитров: Softsub (SRT)
Сэмпл
MediaInfo: General
Unique ID : 179302480428786892333932938268626206971 (0x86E466D04F9132A783B8E82E376940FB)
Complete name : F:Torrent 2Rush.Hour.1-3.renta231998 Час пик.mkv
Format : Matroska
Format version : Version 4 / Version 2
File size : 11.2 GiB
Duration : 1h 37mn
Overall bit rate : 16.4 Mbps
Movie name : 1998 Час пик / renta23
Encoded date : UTC 2015-10-24 13:44:55
Writing application : mkvmerge v8.3.0 ('Over the Horizon') 32bit
Writing library : libebml v1.3.1 + libmatroska v1.4.2
DURATION : 01:37:49.920000000
NUMBER_OF_FRAMES : 183435
NUMBER_OF_BYTES : 281756160
_STATISTICS_WRITING_APP : mkvmerge v8.3.0 ('Over the Horizon') 32bit
_STATISTICS_WRITING_DATE_UTC : 2015-10-24 13:44:55
_STATISTICS_TAGS : BPS DURATION NUMBER_OF_FRAMES NUMBER_OF_BYTES
Video
ID : 1
Format : AVC
Format/Info : Advanced Video Codec
Format profile : High@L4.1
Format settings, CABAC : Yes
Format settings, ReFrames : 4 frames
Codec ID : V_MPEG4/ISO/AVC
Duration : 1h 37mn
Bit rate : 12.5 Mbps
Width : 1 920 pixels
Height : 784 pixels
Display aspect ratio : 2.40:1
Frame rate mode : Constant
Frame rate : 23.976 fps
Color space : YUV
Chroma subsampling : 4:2:0
Bit depth : 8 bits
Scan type : Progressive
Bits/(Pixel*Frame) : 0.346
Stream size : 8.32 GiB (74%)
Title : 1998 Час пик
Writing library : x264 core 146 r2538 121396c
Encoding settings : cabac=1 / ref=4 / deblock=1:-1:-1 / analyse=0x3:0x133 / me=umh / subme=11 / psy=1 / psy_rd=1.15:0.00 / mixed_ref=1 / me_range=32 / chroma_me=1 / trellis=2 / 8x8dct=1 / cqm=0 / deadzone=21,11 / fast_pskip=0 / chroma_qp_offset=-2 / threads=12 / lookahead_threads=3 / sliced_threads=0 / nr=0 / decimate=1 / interlaced=0 / bluray_compat=0 / constrained_intra=0 / bframes=12 / b_pyramid=2 / b_adapt=2 / b_bias=0 / direct=3 / weightb=1 / open_gop=0 / weightp=2 / keyint=250 / keyint_min=23 / scenecut=40 / intra_refresh=0 / rc_lookahead=50 / rc=2pass / mbtree=1 / bitrate=12500 / ratetol=1.0 / qcomp=0.60 / qpmin=0 / qpmax=69 / qpstep=4 / cplxblur=20.0 / qblur=0.5 / ip_ratio=1.40 / aq=1:1.00
Language : English
Default : Yes
Forced : No
Audio #1
ID : 2
Format : AC-3
Format/Info : Audio Coding 3
Mode extension : CM (complete main)
Format settings, Endianness : Big
Codec ID : A_AC3
Duration : 1h 37mn
Bit rate mode : Constant
Bit rate : 448 Kbps
Channel(s) : 6 channels
Channel positions : Front: L C R, Side: L R, LFE
Sampling rate : 48.0 KHz
Compression mode : Lossy
Stream size : 314 MiB (3%)
Title : Дубляж
Language : Russian
Default : Yes
Forced : No
Audio #2
ID : 3
Format : AC-3
Format/Info : Audio Coding 3
Mode extension : CM (complete main)
Format settings, Endianness : Big
Codec ID : A_AC3
Duration : 1h 37mn
Bit rate mode : Constant
Bit rate : 192 Kbps
Channel(s) : 2 channels
Channel positions : Front: L R
Sampling rate : 48.0 KHz
Compression mode : Lossy
Stream size : 134 MiB (1%)
Title : Многоголосый
Language : Russian
Default : No
Forced : No
Audio #3
ID : 4
Format : AC-3
Format/Info : Audio Coding 3
Mode extension : CM (complete main)
Format settings, Endianness : Big
Codec ID : A_AC3
Duration : 1h 37mn
Bit rate mode : Constant
Bit rate : 192 Kbps
Channel(s) : 2 channels
Channel positions : Front: L R
Sampling rate : 48.0 KHz
Compression mode : Lossy
Stream size : 134 MiB (1%)
Title : Двухголосый, SDI Media
Language : Russian
Default : No
Forced : No
Audio #4
ID : 5
Format : AC-3
Format/Info : Audio Coding 3
Mode extension : CM (complete main)
Format settings, Endianness : Big
Codec ID : A_AC3
Duration : 1h 37mn
Bit rate mode : Constant
Bit rate : 448 Kbps
Channel(s) : 6 channels
Channel positions : Front: L C R, Side: L R, LFE
Sampling rate : 48.0 KHz
Compression mode : Lossy
Stream size : 314 MiB (3%)
Title : Одноголосый закадровый, Ю. Живов
Language : Russian
Default : No
Forced : No
Audio #5
ID : 6
Format : DTS
Format/Info : Digital Theater Systems
Mode : 16
Format settings, Endianness : Big
Codec ID : A_DTS
Duration : 1h 37mn
Bit rate mode : Constant
Bit rate : 755 Kbps
Channel(s) : 6 channels
Channel positions : Front: L C R, Side: L R, LFE
Sampling rate : 48.0 KHz
Bit depth : 24 bits
Compression mode : Lossy
Stream size : 528 MiB (5%)
Title : Одноголосый закадровый, П. Санаев
Language : Russian
Default : No
Forced : No
Audio #6
ID : 7
Format : AC-3
Format/Info : Audio Coding 3
Mode extension : CM (complete main)
Format settings, Endianness : Big
Codec ID : A_AC3
Duration : 1h 37mn
Bit rate mode : Constant
Bit rate : 384 Kbps
Channel(s) : 6 channels
Channel positions : Front: L C R, Side: L R, LFE
Sampling rate : 48.0 KHz
Compression mode : Lossy
Stream size : 269 MiB (2%)
Title : Двухголосый, Новый канал
Language : Ukrainian
Default : No
Forced : No
Audio #7
ID : 8
Format : DTS
Format/Info : Digital Theater Systems
Format profile : ES
Mode : 16
Format settings, Endianness : Big
Codec ID : A_DTS
Duration : 1h 37mn
Bit rate mode : Constant
Bit rate : 1 509 Kbps
Channel(s) : 6 channels
Channel positions : Front: L C R, Side: L R, LFE
Sampling rate : 48.0 KHz
Bit depth : 24 bits
Compression mode : Lossy
Stream size : 1.03 GiB (9%)
Language : English
Default : No
Forced : No
Text #1
ID : 9
Format : UTF-8
Codec ID : S_TEXT/UTF8
Codec ID/Info : UTF-8 Plain Text
Language : Russian
Default : No
Forced : No
Text #2
ID : 10
Format : UTF-8
Codec ID : S_TEXT/UTF8
Codec ID/Info : UTF-8 Plain Text
Language : English
Default : No
Forced : No
Menu
00:00:00.000 : en:Opening Credits
00:02:28.022 : en:"Where Is Juntao?"
00:04:01.741 : en:Hong Kong, 1997
00:06:10.787 : en:C4
00:09:28.901 : en:School;S Out
00:12:03.305 : en:Partners
00:15:16.957 : en:Going to the Show
00:17:11.697 : en:G-14 Classified
00:20:01.700 : en:Carter, Fbi
00:22:53.580 : en:Supercops
00:27:04.456 : en:The United States of James Carter
00:29:16.963 : en:Azteca Shakedown
00:34:39.577 : en:Quick Hands
00:35:50.481 : en:Meet Inspector Li
00:38:46.907 : en:Get Carter
00:41:35.326 : en:Pickup on Sixth Street
00:43:32.359 : en:The Detonator
00:46:48.889 : en:Practice Makes Perfect
00:48:42.294 : en:"Give Me the Name"
00:51:11.902 : en:The Foo Chow
00:54:45.865 : en:Camel's Hump
00:57:35.076 : en:One From Column B
00:59:36.281 : en:"Fight Me Like a Man"
01:02:47.680 : en:Room Service
01:06:05.753 : en:Case Closed
01:08:14.131 : en:Juntao Calls
01:10:50.162 : en:A Lesson in Honor
01:13:07.925 : en:Getting the Drop on the Drop
01:16:33.380 : en:"Juntao!"
01:18:47.139 : en:"Thank You and Good Night"
01:22:06.755 : en:Saving Vase
01:23:43.977 : en:"Meet Me on the Road"
01:25:58.570 : en:Leave Them in Stitches
01:28:01.276 : en:A Banner Night
01:29:57.392 : en:Three Little Words
01:32:10.775 : en:End Credits/Bloopers
01:35:16.836 : en:Tail Credits

Час пик 2 / Rush Hour 2 (1998) BDRip 1080p:


Информация о фильме
Название: Час пик 2
Оригинальное: Rush Hour 2
Год выпуска: 2001
Страна: США, Гонконг
Жанр: Боевик, комедия
Продолжительность: 01:30:04
Перевод: Профессиональный (полное дублирование), Профессиональный (многоголосый закадровый), Профессиональный (двухголосый закадровый), Авторский (одноголосый закадровый)
Субтитры: Русские, английские
Режиссер: Бретт Ратнер / Brett Ratner
В ролях: Джеки Чан, Крис Такер, Джон Лоне, Цзыи Чжан, Розелин Санчез, Харрис Юлин, Алан Кинг, Кеннет Цан, Мей Меланкон и др.
Описание: Детективы Ли и Картер снова вместе! На этот раз — в Гонконге, куда Картер приехал, чтобы отдохнуть и оттянуться в компании старого приятеля. Приятель же как раз в этот момент занят важным расследованием — он выслеживает одного из боссов Триады, подозреваемого в организации взрыва в американском посольстве...

Качество: BDRip 1080p
Видео: MPEG4 Video (H264), 1920x800, 23.976fps, 12.0 Mbps
Аудио #1: Русский: Dolby AC3, 48000 Hz, 6ch, 448 kbps - Дубляж
Аудио #2: Русский: Dolby AC3, 48000 Hz, 6ch, 448 kbps - Многоголосый закадровый, LDV
Аудио #3: Русский: Dolby AC3, 48000 Hz, 2ch, 192 kbps - Многоголосый закадровый, ТНТ
Аудио #4: Русский: Dolby AC3, 48000 Hz, 2ch, 192 kbps - Двухголосый закадровый, TV1000
Аудио #5: Русский: Dolby AC3, 48000 Hz, 6ch, 448 kbps - Одноголосый, А. Гаврилов
Аудио #6: Русский: Dolby AC3, 48000 Hz, 6ch, 448 kbps - Одноголосый, С. Визгунов
Аудио #7: Украинский: Dolby AC3, 48000 Hz, 6ch, 448 kbps - Многоголосый закадровый, Новый канал
Аудио #8: Английский: DTS, 48000 Hz, 6ch, 1536 kbps
Формат субтитров: Softsub (SRT)
Сэмпл
MediaInfo:
General
Unique ID : 195889436470900834731941767734288816945 (0x935EEEE2D7BB26F9BDCC0B7CF3019B31)
Complete name : F:Torrent 2Rush.Hour.1-3.renta232001 Час пик 2 (1).mkv
Format : Matroska
Format version : Version 4 / Version 2
File size : 10.2 GiB
Duration : 1h 30mn
Overall bit rate : 16.1 Mbps
Movie name : 2001 Час пик 2 / renta23
Encoded date : UTC 2015-10-27 18:51:02
Writing application : mkvmerge v8.3.0 ('Over the Horizon') 64bit
Writing library : libebml v1.3.1 + libmatroska v1.4.2
DURATION : 01:29:14.515000000
NUMBER_OF_FRAMES : 1416
NUMBER_OF_BYTES : 46227
_STATISTICS_WRITING_APP : mkvmerge v8.3.0 ('Over the Horizon') 64bit
_STATISTICS_WRITING_DATE_UTC : 2015-10-27 18:51:02
_STATISTICS_TAGS : BPS DURATION NUMBER_OF_FRAMES NUMBER_OF_BYTES
Video
ID : 1
Format : AVC
Format/Info : Advanced Video Codec
Format profile : High@L4.1
Format settings, CABAC : Yes
Format settings, ReFrames : 4 frames
Codec ID : V_MPEG4/ISO/AVC
Duration : 1h 30mn
Bit rate : 12.0 Mbps
Width : 1 920 pixels
Height : 800 pixels
Display aspect ratio : 2.40:1
Frame rate mode : Constant
Frame rate : 23.976 fps
Color space : YUV
Chroma subsampling : 4:2:0
Bit depth : 8 bits
Scan type : Progressive
Bits/(Pixel*Frame) : 0.326
Stream size : 7.35 GiB (72%)
Title : 2001 Час пик 2
Writing library : x264 core 146 r2538 121396c
Encoding settings : cabac=1 / ref=4 / deblock=1:-1:-1 / analyse=0x3:0x133 / me=umh / subme=11 / psy=1 / psy_rd=1.15:0.00 / mixed_ref=1 / me_range=32 / chroma_me=1 / trellis=2 / 8x8dct=1 / cqm=0 / deadzone=21,11 / fast_pskip=0 / chroma_qp_offset=-2 / threads=12 / lookahead_threads=3 / sliced_threads=0 / nr=0 / decimate=1 / interlaced=0 / bluray_compat=0 / constrained_intra=0 / bframes=12 / b_pyramid=2 / b_adapt=2 / b_bias=0 / direct=3 / weightb=1 / open_gop=0 / weightp=2 / keyint=250 / keyint_min=23 / scenecut=40 / intra_refresh=0 / rc_lookahead=50 / rc=2pass / mbtree=1 / bitrate=12000 / ratetol=1.0 / qcomp=0.60 / qpmin=0 / qpmax=69 / qpstep=4 / cplxblur=20.0 / qblur=0.5 / ip_ratio=1.40 / aq=1:1.00
Language : English
Default : Yes
Forced : No
Audio #1
ID : 2
Format : AC-3
Format/Info : Audio Coding 3
Mode extension : CM (complete main)
Format settings, Endianness : Big
Codec ID : A_AC3
Duration : 1h 30mn
Bit rate mode : Constant
Bit rate : 448 Kbps
Channel(s) : 6 channels
Channel positions : Front: L C R, Side: L R, LFE
Sampling rate : 48.0 KHz
Compression mode : Lossy
Stream size : 289 MiB (3%)
Title : Дубляж
Language : Russian
Default : Yes
Forced : No
Audio #2
ID : 3
Format : AC-3
Format/Info : Audio Coding 3
Mode extension : CM (complete main)
Format settings, Endianness : Big
Codec ID : A_AC3
Duration : 1h 30mn
Bit rate mode : Constant
Bit rate : 448 Kbps
Channel(s) : 6 channels
Channel positions : Front: L C R, Side: L R, LFE
Sampling rate : 48.0 KHz
Compression mode : Lossy
Stream size : 289 MiB (3%)
Title : Многоголосый закадровый, LDV
Language : Russian
Default : No
Forced : No
Audio #3
ID : 4
Format : AC-3
Format/Info : Audio Coding 3
Mode extension : CM (complete main)
Format settings, Endianness : Big
Codec ID : A_AC3
Duration : 1h 30mn
Bit rate mode : Constant
Bit rate : 192 Kbps
Channel(s) : 2 channels
Channel positions : Front: L R
Sampling rate : 48.0 KHz
Compression mode : Lossy
Stream size : 124 MiB (1%)
Title : Многоголосый закадровый, ТНТ/Рен-ТВ/ТВ-3
Language : Russian
Default : No
Forced : No
Audio #4
ID : 5
Format : AC-3
Format/Info : Audio Coding 3
Mode extension : CM (complete main)
Format settings, Endianness : Big
Codec ID : A_AC3
Duration : 1h 30mn
Bit rate mode : Constant
Bit rate : 192 Kbps
Channel(s) : 2 channels
Channel positions : Front: L R
Sampling rate : 48.0 KHz
Compression mode : Lossy
Stream size : 124 MiB (1%)
Title : Двухголосый закадровый, TV1000
Language : Russian
Default : No
Forced : No
Audio #5
ID : 6
Format : AC-3
Format/Info : Audio Coding 3
Mode extension : CM (complete main)
Format settings, Endianness : Big
Codec ID : A_AC3
Duration : 1h 30mn
Bit rate mode : Constant
Bit rate : 448 Kbps
Channel(s) : 6 channels
Channel positions : Front: L C R, Side: L R, LFE
Sampling rate : 48.0 KHz
Compression mode : Lossy
Stream size : 289 MiB (3%)
Title : Одноголосый, А. Гаврилов
Language : Russian
Default : No
Forced : No
Audio #6
ID : 7
Format : AC-3
Format/Info : Audio Coding 3
Mode extension : CM (complete main)
Format settings, Endianness : Big
Codec ID : A_AC3
Duration : 1h 30mn
Bit rate mode : Constant
Bit rate : 448 Kbps
Channel(s) : 6 channels
Channel positions : Front: L C R, Side: L R, LFE
Sampling rate : 48.0 KHz
Compression mode : Lossy
Stream size : 289 MiB (3%)
Title : Одноголосый, С. Визгунов
Language : Russian
Default : No
Forced : No
Audio #7
ID : 8
Format : AC-3
Format/Info : Audio Coding 3
Mode extension : CM (complete main)
Format settings, Endianness : Big
Codec ID : A_AC3
Duration : 1h 30mn
Bit rate mode : Constant
Bit rate : 448 Kbps
Channel(s) : 6 channels
Channel positions : Front: L C R, Side: L R, LFE
Sampling rate : 48.0 KHz
Compression mode : Lossy
Stream size : 289 MiB (3%)
Title : Многоголосый закадровый, Новый канал
Language : Ukrainian
Default : No
Forced : No
Audio #8
ID : 9
Format : DTS
Format/Info : Digital Theater Systems
Mode : 16
Format settings, Endianness : Big
Codec ID : A_DTS
Duration : 1h 30mn
Bit rate mode : Constant
Bit rate : 1 509 Kbps
Channel(s) : 6 channels
Channel positions : Front: L C R, Side: L R, LFE
Sampling rate : 48.0 KHz
Bit depth : 24 bits
Compression mode : Lossy
Stream size : 973 MiB (9%)
Language : English
Default : No
Forced : No
Text #1
ID : 10
Format : UTF-8
Codec ID : S_TEXT/UTF8
Codec ID/Info : UTF-8 Plain Text
Language : Russian
Default : No
Forced : No
Text #2
ID : 11
Format : UTF-8
Codec ID : S_TEXT/UTF8
Codec ID/Info : UTF-8 Plain Text
Language : English
Default : No
Forced : No
Text #3
ID : 12
Format : UTF-8
Codec ID : S_TEXT/UTF8
Codec ID/Info : UTF-8 Plain Text
Language : English
Default : No
Forced : No
Menu
00:00:00.000 : en:Deadly Delivery
00:04:37.235 : en:Triad Club
00:13:30.601 : en:Heaven On Earth
00:21:42.884 : en:Bigger than Ricky Tan
00:27:48.833 : en:Out to Sea
00:33:22.917 : en:Tan Overboard
00:38:50.244 : en:Follow the Rich White Man
00:47:11.078 : en:Crenshaw Kitchen
00:51:18.116 : en:Road Trip
00:58:56.241 : en:Red Dragon
01:03:52.036 : en:Let's Play Some Craps!
01:08:59.093 : en:An Explosive Situation
01:14:51.570 : en:Carter v. Hu Li
01:17:29.603 : en:Just Like Your Father
01:22:03.335 : en:Goodbye?
01:24:38.114 : en:Outtakes
01:30:06.776 : en:End Credits

Час пик 3 / Rush Hour 3 (1998) BDRip 1080p:


Информация о фильме
Название: Час пик 3
Оригинальное: Rush Hour 3
Год выхода: 2007
Страна: США, Германия
Жанр: Боевик, комедия
Продолжительность: 01:30:47
Перевод: Профессиональный (полное дублирование), Профессиональный (двухголосый закадровый), Авторский (одноголосый закадровый)
Субтитры: Русские, английские
Режиссер: Бретт Ратнер / Brett Ratner
В ролях: Крис Такер, Джеки Чан, Макс фон Сюдов, Хироюки Санада, Иван Атталь, Юки Кудо, Ноэми Ленуар, Чжан Цзинчу, Ци Ма, Дэна Айви, Генри О, Миа Тайлер, Майкл Чоу, Дэвид Найвен мл., Оань Нгуен, Эндрю Нгуен, Сунь Минг Минг, Лиза Торнхилл, Кэнтаро Юри Йамашита, Людовик Пэрис, Ришар Дьё, Оливье Шнайдер, Филипп Бержерон, Даниэль Ябут, Фрэнк Брюнброк, Лиза Пипергердес, Эрик Наггар, Сильви Лагюна, Микаэла Ми-Сук, Даниэль Декрозе, Энн Кристин, Анна Чи, Хезер Мостофизадех, Жасмин Дастин, Франческа Сесил, Дэвид Голдсмит, Мишель Франчини, Жюли Депардьё, Марк Хоанг, Лиза Бернс
Описание: Лос-анджелесского полицейского Джеймса Картера, допустившего грубую ошибку при аресте подозреваемого, переводят на гораздо менее престижную должность в дорожной полиции. Тем временем гонконгский полицейский инспектор Ли получает спецзадание: он должен охранять китайского посла Хана, который направляется в Лос-Анджелес, чтобы произнести там речь на саммите Всемирного уголовного суда. Хан намеревается разоблачить интриги китайской Триады - самого опасного криминального синдиката в мире - и вывести на чистую воду преступных боссов. Представители Триады, разумеется, не дремлют. Они отправляют в Лос-Анджелес наемного убийцу, которому удается ранить посла в тот самый момент, когда он начинает произносить свою разоблачительную речь. Ли бросается вдогонку за преступником. Тем временем Картер, услышав по полицейскому радио сообщение о покушении на посла, мчится на место преступления... и, естественно, только путается под ногами у Ли.

Качество: BDRip 1080p
Видео: MPEG4 Video (H264), 1920x800, 23.976fps, 12.5 Mbps
Аудио #1: Русский: Dolby AC3, 48000 Hz, 6ch, 448 kbps - Дубляж
Аудио #2: Русский: Dolby AC3, 48000 Hz, 6ch, 448 kbps - Двухголосый
Аудио #3: Русский: DTS, 48000 Hz, 6ch, 1536 kbps - Одноголосый закадровый, А.Гаврилов
Аудио #4: Русский: DTS, 48000 Hz, 6ch, 1536 kbps - Одноголосый закадровый, В.Королев
Аудио #5: Английский: DTS, 48000 Hz, 6ch, 1536 kbps
Формат субтитров: Softsub (SRT)
Сэмпл
MediaInfo:
General
Unique ID : 199732917854416666392980121834243196573 (0x9643292618DBEFA89779EAEDD40B869D)
Complete name : F:Torrent 2Rush.Hour.1-3.renta232007 Час пик 3.mkv
Format : Matroska
Format version : Version 4 / Version 2
File size : 11.4 GiB
Duration : 1h 30mn
Overall bit rate : 17.9 Mbps
Movie name : 2007 Час пик 3 / renta23
Encoded date : UTC 2015-10-27 09:22:11
Writing application : mkvmerge v8.3.0 ('Over the Horizon') 64bit
Writing library : libebml v1.3.1 + libmatroska v1.4.2
DURATION : 01:30:47.488000000
NUMBER_OF_FRAMES : 170234
NUMBER_OF_BYTES : 305059328
_STATISTICS_WRITING_APP : mkvmerge v8.3.0 ('Over the Horizon') 64bit
_STATISTICS_WRITING_DATE_UTC : 2015-10-27 09:22:11
_STATISTICS_TAGS : BPS DURATION NUMBER_OF_FRAMES NUMBER_OF_BYTES
Video
ID : 1
Format : AVC
Format/Info : Advanced Video Codec
Format profile : High@L4.1
Format settings, CABAC : Yes
Format settings, ReFrames : 4 frames
Codec ID : V_MPEG4/ISO/AVC
Duration : 1h 30mn
Bit rate : 12.5 Mbps
Width : 1 920 pixels
Height : 800 pixels
Display aspect ratio : 2.40:1
Frame rate mode : Constant
Frame rate : 23.976 fps
Color space : YUV
Chroma subsampling : 4:2:0
Bit depth : 8 bits
Scan type : Progressive
Bits/(Pixel*Frame) : 0.339
Stream size : 7.70 GiB (68%)
Title : 2007 Час пик 3
Writing library : x264 core 146 r2538 121396c
Encoding settings : cabac=1 / ref=4 / deblock=1:-1:-1 / analyse=0x3:0x133 / me=umh / subme=11 / psy=1 / psy_rd=1.15:0.00 / mixed_ref=1 / me_range=32 / chroma_me=1 / trellis=2 / 8x8dct=1 / cqm=0 / deadzone=21,11 / fast_pskip=0 / chroma_qp_offset=-2 / threads=12 / lookahead_threads=3 / sliced_threads=0 / nr=0 / decimate=1 / interlaced=0 / bluray_compat=0 / constrained_intra=0 / bframes=12 / b_pyramid=2 / b_adapt=2 / b_bias=0 / direct=3 / weightb=1 / open_gop=0 / weightp=2 / keyint=250 / keyint_min=23 / scenecut=40 / intra_refresh=0 / rc_lookahead=50 / rc=2pass / mbtree=1 / bitrate=12500 / ratetol=1.0 / qcomp=0.60 / qpmin=0 / qpmax=69 / qpstep=4 / cplxblur=20.0 / qblur=0.5 / ip_ratio=1.40 / aq=1:1.00
Language : English
Default : Yes
Forced : No
Audio #1
ID : 2
Format : AC-3
Format/Info : Audio Coding 3
Mode extension : CM (complete main)
Format settings, Endianness : Big
Codec ID : A_AC3
Duration : 1h 30mn
Bit rate mode : Constant
Bit rate : 448 Kbps
Channel(s) : 6 channels
Channel positions : Front: L C R, Side: L R, LFE
Sampling rate : 48.0 KHz
Compression mode : Lossy
Stream size : 291 MiB (2%)
Title : Дубляж
Language : Russian
Default : Yes
Forced : No
Audio #2
ID : 3
Format : AC-3
Format/Info : Audio Coding 3
Mode extension : CM (complete main)
Format settings, Endianness : Big
Codec ID : A_AC3
Duration : 1h 30mn
Bit rate mode : Constant
Bit rate : 448 Kbps
Channel(s) : 6 channels
Channel positions : Front: L C R, Side: L R, LFE
Sampling rate : 48.0 KHz
Compression mode : Lossy
Stream size : 291 MiB (2%)
Title : Двухголосый
Language : Russian
Default : No
Forced : No
Audio #3
ID : 4
Format : DTS
Format/Info : Digital Theater Systems
Mode : 16
Format settings, Endianness : Big
Codec ID : A_DTS
Duration : 1h 30mn
Bit rate mode : Constant
Bit rate : 1 509 Kbps
Channel(s) : 6 channels
Channel positions : Front: L C R, Side: L R, LFE
Sampling rate : 48.0 KHz
Bit depth : 24 bits
Compression mode : Lossy
Stream size : 980 MiB (8%)
Title : Одноголосый закадровый, А.Гаврилов
Language : Russian
Default : No
Forced : No
Audio #4
ID : 5
Format : DTS
Format/Info : Digital Theater Systems
Mode : 16
Format settings, Endianness : Big
Codec ID : A_DTS
Duration : 1h 30mn
Bit rate mode : Constant
Bit rate : 1 509 Kbps
Channel(s) : 6 channels
Channel positions : Front: L C R, Side: L R, LFE
Sampling rate : 48.0 KHz
Bit depth : 24 bits
Compression mode : Lossy
Stream size : 980 MiB (8%)
Title : Одноголосый закадровый, В.Королев
Language : Russian
Default : No
Forced : No
Audio #5
ID : 6
Format : DTS
Format/Info : Digital Theater Systems
Mode : 16
Format settings, Endianness : Big
Codec ID : A_DTS
Duration : 1h 30mn
Bit rate mode : Constant
Bit rate : 1 509 Kbps
Channel(s) : 6 channels
Channel positions : Front: L C R, Side: L R, LFE
Sampling rate : 48.0 KHz
Bit depth : 24 bits
Compression mode : Lossy
Stream size : 980 MiB (8%)
Language : English
Default : No
Forced : No
Text #1
ID : 7
Format : UTF-8
Codec ID : S_TEXT/UTF8
Codec ID/Info : UTF-8 Plain Text
Language : Russian
Default : No
Forced : No
Text #2
ID : 8
Format : UTF-8
Codec ID : S_TEXT/UTF8
Codec ID/Info : UTF-8 Plain Text
Title : Форсированные
Language : Russian
Default : No
Forced : No
Text #3
ID : 9
Format : UTF-8
Codec ID : S_TEXT/UTF8
Codec ID/Info : UTF-8 Plain Text
Language : Ukrainian
Default : No
Forced : No
Text #4
ID : 10
Format : UTF-8
Codec ID : S_TEXT/UTF8
Codec ID/Info : UTF-8 Plain Text
Language : English
Default : No
Forced : No
Menu
00:00:00.000 : en:Main Titles
00:05:06.556 : en:Attack at the World Court
00:09:24.230 : en:The Promise
00:12:03.597 : en:The Master
00:17:21.081 : en:Hospital Ambush
00:20:44.117 : en:Interrogation
00:24:06.111 : en:Welcome to Paris
00:29:48.661 : en:Searching for Genevieve
00:35:57.989 : en:Superspy Chase
00:41:56.472 : en:Brothers
00:47:48.323 : en:Showtime!
00:54:17.212 : en:Shy Shen
01:05:50.988 : en:The First Cut
01:11:06.512 : en:Tower Duel
01:15:14.760 : en:What Goes Up
01:21:43.857 : en:Outtakes / End Credits

[Профиль] [ЛС]

Создавать темы 28-Окт-2015 06:46 (спустя 1 час 8 минут)

Топик был перенесен из форума Фильмы (HD Rips | 720p, 1080p) в форум Фильмы (Дилогии, трилогии и т.д.)
Russian Mafia
 
Кто просматривает тему:

Показать сообщения:    

Текущее время: Сегодня 08:58

Часовой пояс: GMT



Вы не можете начинать темы
Вы не можете отвечать на сообщения
Вы не можете редактировать свои сообщения
Вы не можете удалять свои сообщения
Вы не можете голосовать в опросах
Вы не можете прикреплять файлы к сообщениям
Вы не можете скачивать файлы