Частный детектив Татьяна Иванова (2014) HDTV [H.264/1080i-LQ] (серии 1-6 из 6)

 
Автор Сообщение

К@питан ®

Пол:

Стаж: 5 лет 6 месяцев

Сообщений: 6092

Откуда: Soviet Union



Награды: Нет

Торрент-статистика

Создавать темы 11-Авг-2014 12:19

[Цитировать]

-Частный детектив Татьяна Иванова (2014) HDTV [H.264/1080i-LQ] (серии 1-6 из 6)- Русское название: Частный детектив Татьяна Иванова
Производство: "М. Продакшн", Россия
Год выпуска: 2014
Жанр: Детектив
Режиссер: Олег Штром
Актеры: Анна Тараторкина, Александр Пашков, Андрей Биланов, Татьяна Лянник, Максим Емельянов, Дмитрий Мазуров, Руслан Ягудин, Ирина Темичева, Александр Хошабаев, Евгения Бордзиловская, Виктория Полторак
Описание фильма:
Татьяна Иванова, бывший опер, старший лейтенант полиции после сокращения уволенная из органов, начинает работать частным детективом в городе Тарасове. К ней обращаются граждане со своими проблемами в тех случаях, когда они, по тем или иным причинам, не хотят или не могут обратиться в полицию. В расследованиях Тани ей помогают ее бывшие коллеги. Один из них — капитан Андрей Мельников — давно влюблен в Таню.

Дата российской премьеры: 03.08.2014
Продолжительность: ~ 01:26:00 серия
Качество видео: HDTV
Видеокодек: AVC/H.264
Битрейт видео: ~6800-7900 Kbps
Размер кадра: 1920x1080 (16:9)
Аудиокодек: AC3
Битрейт аудио: 2 ch, 192 Kbps

MediaInfo:

Общее
Уникальный идентификатор : 201068456125768921724453649069530447481 (0x97446044F8E51B3E979BD27A767C7E79)
Полное имя : E:\DOWNLOADS\Частный детектив Татьяна Иванова (2014) HDTV 1080\Частный детектив Татьяна Иванова - 01 серия.mkv
Формат : Matroska
Версия формата : Version 2
Размер файла : 4,33 Гбайт
Продолжительность : 1 ч. 26 м.
Общий поток : 7208 Кбит/сек
Дата кодирования : UTC 2014-08-04 14:32:05
Программа кодирования : mkvmerge v6.1.0 ('Old Devil') built on Mar 4 2013 09:10:42
Библиотека кодирования : libebml v1.3.0 + libmatroska v1.4.0
Видео
Идентификатор : 1
Формат : AVC
Формат/Информация : Advanced Video Codec
Профиль формата : [url=mailto:High@L4.0]High@L4.0[/url]
Параметр CABAC формата : Да
Параметр ReFrames формата : 4 кадра
Идентификатор кодека : V_MPEG4/ISO/AVC
Продолжительность : 1 ч. 26 м.
Битрейт : 6872 Кбит/сек
Ширина : 1920 пикселей
Высота : 1080 пикселей
Соотношение сторон : 16:9
Режим частоты кадров : Постоянный
Частота кадров : 25,000 кадров/сек
Цветовое пространство : YUV
Субдискретизация насыщенности : 4:2:0
Битовая глубина : 8 бит
Тип развёртки : MBAFF
Бит/(Пиксели*Кадры) : 0.133
Размер потока : 4,13 Гбайт (95%)
Default : Да
Forced : Нет
Аудио
Идентификатор : 2
Формат : AC-3
Формат/Информация : Audio Coding 3
Расширение режима : CM (complete main)
Параметр Endianness формата : Big
Идентификатор кодека : A_AC3
Продолжительность : 1 ч. 26 м.
Вид битрейта : Постоянный
Битрейт : 192 Кбит/сек
Каналы : 2 канала
Расположение каналов : Front: L R
Частота : 48,0 КГц
Битовая глубина : 16 бит
Метод сжатия : С потерями
Размер потока : 118 Мбайт (3%)
Default : Да
Forced : Нет
Скриншоты:
--
[Профиль] [ЛС]
Кто просматривает тему:

Показать сообщения:    

Текущее время: Сегодня 19:13

Часовой пояс: GMT



Вы не можете начинать темы
Вы не можете отвечать на сообщения
Вы не можете редактировать свои сообщения
Вы не можете удалять свои сообщения
Вы не можете голосовать в опросах
Вы не можете прикреплять файлы к сообщениям
Вы не можете скачивать файлы