Частные Армии. Бизнес на Войне (Александр Евсюков) [2015, Документальный, HDTV 720p]

 
Автор Сообщение

TorrentFilm ®

Пол:

Стаж: 1 год 11 месяцев

Сообщений: 7741



Награды: Нет

Торрент-статистика

Создавать темы 17-Апр-2015 00:02

[Цитировать]

Частные Армии. Бизнес на Войне- Год выпуска: 2015
Страна: Россия
Студия: Россия HD
Жанр: Документальный
Продолжительность: 0:46:38
Автор: Александр Колпаков
Режиссер: Александр Евсюков-Описание: Нынешние лидеры мирового рынка военного предпринимательства когда-то занимались лишь малодоходной охраной чужого бизнеса. В последнее время ежегодный оборот частных военных компаний достигает сотен миллиардов долларов. Афганистан, Ирак, Иран, Сирия, Египет. Ни один военный конфликт последних десятилетий не обходится без участия частных военных компаний. Таковы современные реалии. Но почему нынешних бойцов коммерческих армий все чаще сравнивают с циничными наемниками прошлых времен?-Автор рипа: lrn
Автор записи: Generalfilm
Сэмпл: sendfile-Тип релиза: HDTV 720p
Контейнер: MKV
Видео: 1280x720 (16:9), 25,000 fps, H264, ~4000 kbps avg, ~0.174 bit/pixel
Аудио: 48 kHz, AC3 Dolby Digital, 2/0 (L,R) ch, ~192.00 kbps avg-

MediaInfo

GeneralUnique ID : 242763290806393042822567857651732388507 (0xB6A28255707CFD2ABBAB26B1A8D71A9B)Complete name : E:\uTorrent.Temp\Temp\Chastnie.Armii.Biznes.Na.Voyne.2015.HDTV.720p.x264-lrn.mkvFormat : MatroskaFormat version : Version 4 / Version 2File size : 1.37 GiBDuration : 46mn 38sOverall bit rate : 4 194 KbpsMovie name : Chastnie.Armii.Biznes.Na.Voyne.2015.HDTV.720p.x264-lrnEncoded date : UTC 2010-02-22 21:41:31Writing application : mkvmerge v5.9.0 ('On The Loose') built on Dec 9 2012 15:37:01Writing library : libebml v1.3.0 + libmatroska v1.4.0DURATION : 00:46:38.840000000NUMBER_OF_FRAMES : 69971NUMBER_OF_BYTES : 1399400219_STATISTICS_WRITING_APP : mkvmerge v7.0.0 ('Where We Going') 32bit built on Jun 9 2014 15:08:34_STATISTICS_WRITING_DATE_UT : 2015-04-02 13:15:01_STATISTICS_TAGS : BPS DURATION NUMBER_OF_FRAMES NUMBER_OF_BYTES
VideoID : 1Format : AVCFormat/Info : Advanced Video CodecFormat profile : High@L4.1Format settings, CABAC : YesFormat settings, ReFrames : 8 framesCodec ID : V_MPEG4/ISO/AVCDuration : 46mn 38sBit rate : 4 000 KbpsWidth : 1 280 pixelsHeight : 720 pixelsDisplay aspect ratio : 16:9Frame rate mode : ConstantFrame rate : 25.000 fpsColor space : YUVChroma subsampling : 4:2:0Bit depth : 8 bitsScan type : ProgressiveBits/(Pixel*Frame) : 0.174Stream size : 1.28 GiB (93%)Writing library : x264 core 142 r2431 ac76440Encoding settings : cabac=1 / ref=8 / deblock=1:-3:-3 / analyse=0x3:0x133 / me=umh / subme=9 / psy=1 / psy_rd=1.00:0.00 / mixed_ref=1 / me_range=32 / chroma_me=1 / trellis=2 / 8x8dct=1 / cqm=0 / deadzone=21,11 / fast_pskip=1 / chroma_qp_offset=-2 / threads=12 / lookahead_threads=2 / sliced_threads=0 / nr=0 / decimate=1 / interlaced=0 / bluray_compat=0 / constrained_intra=0 / bframes=8 / b_pyramid=2 / b_adapt=2 / b_bias=0 / direct=3 / weightb=1 / open_gop=0 / weightp=2 / keyint=250 / keyint_min=25 / scenecut=40 / intra_refresh=0 / rc_lookahead=50 / rc=2pass / mbtree=1 / bitrate=4000 / ratetol=1.0 / qcomp=0.60 / qpmin=0 / qpmax=69 / qpstep=4 / cplxblur=20.0 / qblur=0.5 / vbv_maxrate=62500 / vbv_bufsize=78125 / nal_hrd=none / filler=0 / ip_ratio=1.40 / aq=1:1.00Default : YesForced : No
AudioID : 2Format : AC-3Format/Info : Audio Coding 3Mode extension : CM (complete main)Format settings, Endianness : BigCodec ID : A_AC3Duration : 46mn 38sBit rate mode : ConstantBit rate : 192 KbpsChannel(s) : 2 channelsChannel positions : Front: L RSampling rate : 48.0 KHzBit depth : 16 bitsCompression mode : LossyStream size : 64.1 MiB (5%)Language : RussianDefault : YesForced : No

x264 log

raw [info]: 1280x720p 1:1 @ 25/1 fps (cfr)x264 [info]: using SAR=1/1x264 [info]: using cpu capabilities: MMX2 SSE2Fast SSSE3 SSE4.2 AVXx264 [info]: profile High, level 4.1x264 [info]: frame I:425 Avg QP:15.92 size:108120x264 [info]: frame P:19132 Avg QP:19.30 size: 40721x264 [info]: frame B:50414 Avg QP:21.84 size: 11393x264 [info]: consecutive B-frames: 4.8% 7.0% 9.9% 38.6% 13.8% 14.5% 3.4% 6.4% 1.5%x264 [info]: mb I I16..4: 7.0% 69.7% 23.4%x264 [info]: mb P I16..4: 3.6% 15.4% 1.9% P16..4: 38.3% 19.4% 12.7% 0.7% 0.2% skip: 7.7%x264 [info]: mb B I16..4: 0.5% 1.5% 0.2% B16..8: 35.4% 10.7% 2.9% direct: 6.1% skip:42.7% L0:37.6% L1:49.2% BI:13.2%x264 [info]: 8x8 transform intra:72.5% inter:63.2%x264 [info]: direct mvs spatial:95.9% temporal:4.1%x264 [info]: coded y,uvDC,uvAC intra: 65.9% 67.5% 32.0% inter: 23.0% 22.4% 1.6%x264 [info]: i16 v,h,dc,p: 34% 26% 6% 34%x264 [info]: i8 v,h,dc,ddl,ddr,vr,hd,vl,hu: 14% 14% 11% 7% 10% 10% 11% 10% 13%x264 [info]: i4 v,h,dc,ddl,ddr,vr,hd,vl,hu: 15% 17% 5% 7% 11% 11% 12% 9% 13%x264 [info]: i8c dc,h,v,p: 41% 27% 19% 12%x264 [info]: Weighted P-Frames: Y:2.2% UV:1.1%x264 [info]: ref P L0: 56.6% 13.2% 14.4% 4.7% 3.7% 2.8% 2.5% 1.8% 0.3% 0.0%x264 [info]: ref B L0: 83.2% 9.3% 3.5% 1.6% 1.2% 0.7% 0.4%x264 [info]: ref B L1: 95.3% 4.7%x264 [info]: kb/s:3999.94encoded 69971 frames, 14.54 fps, 3999.94 kb/s

Скриншоты

-
[Профиль] [ЛС]
Кто просматривает тему:

Форум Тема Автор Размер
BBC BBC: Участники Порохового заговора о себе / Gunpowder Plotter's: In Their Own Words (Адам Кемп / Adam Kemp) [2014 г., Документально-игровой, исторический, HDTVRip-AVC 720p] skorpionN 1.72 GB
Viasat History Viasat History: Частная жизнь Тюдоров / Private life of Tudors [серии 1-3 из 3] (Брюс Бюргесс / Bruce Burgess) [2016 г., Документально-постановчный, история, SATRip] skorpionN 1.85 GB
Документальные HD Англия в общем и в частности. Проект Владимира Познера и Ивана Урганта. Серия 01 (Из ??) [2014, Документальный, HDTV 1080i] TorrentFilm 6.96 GB
Документальные HD Англия в Общем и в Частности: Проект Владимира Познера и Ивана Урганта. Выпуск 1 (из 10) (Валерий Спирин) [2015, Документальный, DD5.1, HDTV 720p] TorrentFilm 2.97 GB
Rock Несчастный случай - Кранты (2014) MP3 sergej644 127 MB
Разная литература П. Судоплатов, В. Семичастный и др. - Мемуары под грифом «секретно» (2016) FB2 достали все 11 MB
Фильмы 2015 года Соучастники (2015) HDTVRip от Шкипер Russian Mafia 745 MB
Фильмы (HD Rips | 720p, 1080p) Соучастники (Роман Просвирнин) [2015, Россия, криминал, мелодрама, HDTV 1080i] TorrentFilm 5.46 GB
Показать сообщения:    

Текущее время: Сегодня 02:45

Часовой пояс: GMT



Вы не можете начинать темы
Вы не можете отвечать на сообщения
Вы не можете редактировать свои сообщения
Вы не можете удалять свои сообщения
Вы не можете голосовать в опросах
Вы не можете прикреплять файлы к сообщениям
Вы не можете скачивать файлы