Частное пионерское (2013) HDTVRip

 
Автор Сообщение

sergej644 ®

Пол:

Стаж: 4 года 11 месяцев

Сообщений: 6040

Откуда: Soviet Union



Награды: Нет

Торрент-статистика

Создавать темы 17-Ноя-2014 21:20

[Цитировать]

-Частное пионерское (2013) HDTVRip- Год выпуска: 2013
Производство: Россия, ООО «ТО Кинопрограмма ХХI век»
Жанр: Детский, Семейный, Приключения
Дата российской премьеры: 19 сентября 2013
Описание фильма:
Мишка и его верный друг Димка – школьники. Они готовятся к празднованию дня рождения пионерской организации. На рыбалке Мишка падает в реку, но его спасает бездомная собака, с которой ребята очень подружились... Неожиданно собака попадает к скорняку, и только помощь друзей может избавить её от неминуемой гибели. Перед Мишкой и Димкой встает непростой выбор - участие в пионерском празднике или спасение собаки ... Долг, дружба, любовь... Что важнее?
Режиссер: Александр Карпиловский
Актеры: Семен Трескунов, Егор Клинаев, Анфиса Вистингаузен, Юлия Рутберг, Светлана Иванова, Владимир Зайцев, Ирина Линдт, Раиса Рязанова, Роман Мадянов, Евгений Мундум, Валентин Садики, Анастасия Добрынина, Екатерина Дурова, Тимофей Трибунцев, Михаил Васьков, Юлия Полынская, Александр Никольский, Вероника Лысакова, Пётр Ступин, Артём Алексеев (II), Сергей Походаев, Валера Бажибин, Максим Тихонов (II), Дмитрий Воронцов (II), Александр Карпиловский

Продолжительность: 01:40:18
Качество видео: HDTVRip
Видеокодек: Xvid
Битрейт видео: ~1797 Кбит/с
Размер кадра: 720x304
Аудиокодек: AC3 5.1
Битрейт аудио: 6 ch, 448 Кбит/с
Сэмпл: Ссылка

MediaInfo

General
Complete name : \Chastnoe.pionerskoe.HDTVRip.avi
Format : AVI
Format/Info : Audio Video Interleave
File size : 1.40 GiB
Duration : 1h 40mn
Overall bit rate : 1 999 Kbps
Writing application : VirtualDubMod 1.5.10.3 | www.virtualdub-fr.org || (build 2550/release)
Writing library : VirtualDubMod build 2550/release
Video
ID : 0
Format : MPEG-4 Visual
Format profile : Advanced Simple@L5
Format settings, BVOP : 1
Format settings, QPel : No
Format settings, GMC : No warppoints
Format settings, Matrix : Custom
Codec ID : XVID
Codec ID/Hint : XviD
Duration : 1h 40mn
Bit rate : 1 797 Kbps
Width : 720 pixels
Height : 304 pixels
Display aspect ratio : 2.35:1
Frame rate : 25.000 fps
Color space : YUV
Chroma subsampling : 4:2:0
Bit depth : 8 bits
Scan type : Progressive
Compression mode : Lossy
Bits/(Pixel*Frame) : 0.328
Stream size : 1.26 GiB (90%)
Writing library : XviD 73
Audio
ID : 1
Format : AC-3
Format/Info : Audio Coding 3
Mode extension : CM (complete main)
Codec ID : 2000
Duration : 1h 40mn
Bit rate mode : Constant
Bit rate : 192 Kbps
Channel(s) : 6 channels
Channel positions : Front: L C R, Side: L R, LFE
Sampling rate : 48.0 KHz
Bit depth : 16 bits
Compression mode : Lossy
Stream size : 138 MiB (10%)
Alignment : Split accross interleaves
Interleave, duration : 40 ms (1.00 video frame)
Interleave, preload duration : 500 ms
Скриншоты: Время раздачи: 24/7 до 5-ти скачавших
[Профиль] [ЛС]
Кто просматривает тему:

Форум Тема Автор Размер
BBC BBC: Участники Порохового заговора о себе / Gunpowder Plotter's: In Their Own Words (Адам Кемп / Adam Kemp) [2014 г., Документально-игровой, исторический, HDTVRip-AVC 720p] skorpionN 1.72 GB
Viasat History Viasat History: Частная жизнь Тюдоров / Private life of Tudors [серии 1-3 из 3] (Брюс Бюргесс / Bruce Burgess) [2016 г., Документально-постановчный, история, SATRip] skorpionN 1.85 GB
Документальные HD Англия в общем и в частности. Проект Владимира Познера и Ивана Урганта. Серия 01 (Из ??) [2014, Документальный, HDTV 1080i] TorrentFilm 6.96 GB
Документальные HD Англия в Общем и в Частности: Проект Владимира Познера и Ивана Урганта. Выпуск 1 (из 10) (Валерий Спирин) [2015, Документальный, DD5.1, HDTV 720p] TorrentFilm 2.97 GB
Rock Несчастный случай - Кранты (2014) MP3 sergej644 127 MB
Разная литература П. Судоплатов, В. Семичастный и др. - Мемуары под грифом «секретно» (2016) FB2 достали все 11 MB
Фильмы 2015 года Соучастники (2015) HDTVRip от Шкипер Russian Mafia 745 MB
Фильмы (HD Rips | 720p, 1080p) Соучастники (Роман Просвирнин) [2015, Россия, криминал, мелодрама, HDTV 1080i] TorrentFilm 5.46 GB
Показать сообщения:    

Текущее время: Сегодня 18:42

Часовой пояс: GMT



Вы не можете начинать темы
Вы не можете отвечать на сообщения
Вы не можете редактировать свои сообщения
Вы не можете удалять свои сообщения
Вы не можете голосовать в опросах
Вы не можете прикреплять файлы к сообщениям
Вы не можете скачивать файлы