Чародей равновесия. Тайна Сухаревой башни (2015) WEB-DLRip

 
Автор Сообщение

достали все ®

Пол:

Стаж: 1 год 8 месяцев

Сообщений: 6600



Награды: 12 (Подробнее)

Mega Releaser 3 (Количество: 1) Mega Seeder 1 (Количество: 1) Top Releaser 4 (Количество: 1)
Торрент-статистика

Создавать темы 27-Апр-2015 08:51

[Цитировать]

-Чародей равновесия. Тайна Сухаревой башни (2015) WEB-DLRip - Год выпуска: 2015
Жанр: Мультфильм, Фэнтези, История
Производство: Россия, Студия "Мастер-Фильм"
Дата российской премьеры: 26 марта 2015, «Каропрокат»
Описание:
Россия, конец 17 века. Царь Петр Первый издает указ о праздновании Нового года. Ко двору царя под видом ученого-механика приезжает Магистр темной магии, который стремится попасть в Волшебные Миры и вернуть свою магическую силу. Врата Волшебных миров находятся в Москве в Сухаревой башне. Их охраняет граф Яков Брюс — знаменитый сподвижник царя Петра, ученый, колдун и Чародей Равновесия. Ученик Брюса, подросток Петя, случайно узнает о коварных планах Магистра и спешит к Сухаревой башне, чтобы предупредить дочь Брюса Маргариту об опасности. Дети ссорятся и нечаянно разрывают старинный манускрипт, в котором заключена магическая сила Брюса. Для восстановления манускрипта дети отправляются в опасное приключение в Волшебные миры.
Режиссер: Сергей Серегин
Продюсер: Александр Герасимов, Мария Дроздова
Актеры: Прохор Чеховской, Ольга Шорохова, Диомид Виноградов, Александр Тараньжин, Станислав Дужников, Вадим Демчог, Алла Санникова, Сергей Габриэлян, Алексей Емцов, Алексей Иващенко
Продолжительность: 01:13:24
Качество видео: WEB-DLRip
Вид субтитров: Отсутствуют
Видеокодек: XviD
Битрейт видео: 1884 kb/s
Размер кадра: 720x400
Аудиокодек: AC3 5.1
Битрейт аудио: 384 kb/s
Скачать: Сэмпл

MI

Общее
Полное имя                               : D:\Чародей.равновесия.Тайна.Сухаревой.башни.2015.WEB-DLRip.nnm-club.avi
Формат                                   : AVI
Формат/Информация                        : Audio Video Interleave
Размер файла                             : 1,37 Гбайт
Продолжительность                        : 1 ч. 13 м.
Общий поток                              : 2666 Кбит/сек
Программа кодирования                    : VirtualDubMod 1.5.10.2 (build 2540/release)
Библиотека кодирования                   : VirtualDubMod build 2540/release
Видео
Идентификатор                            : 0
Формат                                   : MPEG-4 Visual
Профиль формата                          : Advanced Simple@L5
Параметр BVOP формата                    : 2
Параметр QPel формата                    : Нет
Параметр GMC формата                     : Без точки перехода
Параметр матрицы формата                 : Default (MPEG)
Идентификатор кодека                     : XVID
Идентификатор кодека/Подсказка           : XviD
Продолжительность                        : 1 ч. 13 м.
Битрейт                                  : 1884 Кбит/сек
Ширина                                   : 720 пикселей
Высота                                   : 400 пикселей
Соотношение сторон                       : 16:9
Частота кадров                           : 25,000 кадров/сек
Цветовое пространство                    : YUV
Субдискретизация насыщенности            : 4:2:0
Битовая глубина                          : 8 бит
Тип развёртки                            : Прогрессивная
Метод сжатия                             : С потерями
Бит/(Пиксели*Кадры)                      : 0.262
Размер потока                            : 989 Мбайт (71%)
Библиотека кодирования                   : XviD 1.2.1 (UTC 2008-12-04)
Аудио #1
Идентификатор                            : 1
Формат                                   : AC-3
Формат/Информация                        : Audio Coding 3
Расширение режима                        : CM (complete main)
Параметр Endianness формата              : Big
Идентификатор кодека                     : 2000
Продолжительность                        : 1 ч. 13 м.
Вид битрейта                             : Постоянный
Битрейт                                  : 384 Кбит/сек
Каналы                                   : 6 каналов
Расположение каналов                     : Front: L C R, Side: L R, LFE
Частота                                  : 48,0 КГц
Битовая глубина                          : 16 бит
Метод сжатия                             : С потерями
Размер потока                            : 202 Мбайт (14%)
Выравнивание                             : Разделение по промежуткам
Продолжительность промежутка             : 40  мс. (1,00 видеокадр)
Время предзагрузки промежутка            : 500  мс.
Скриншоты:
[Профиль] [ЛС]
Кто просматривает тему:

Форум Тема Автор Размер
Фантастика, фэнтези Гай Юлий Орловский | Патроны чародея (2015) [FB2] достали все 2 MB
Фильмы 2011 года Горец 3: Последнее измерение / Горец 3: Чародей / Highlander III: The Sorcerer / Highlander III: The Final Dimension (Эндрю Морахэн / Andrew Morahan) [1994, Канада, Франция, Велик... Russian Mafia 2.74 GB
Фильмы (HD Rips | 720p, 1080p) Горец 3: Чародей / Highlander III: The Sorcerer (1994) BDRip 1080p | P, A Russian Mafia 9.46 GB
Фантастика и фэнтези Екатерина Лесина – Внучка берендеева в чародейской академии (2016) MP3 Swager 1.16 GB
Фильмы 2015 года Сердце дракона 3: Заклятие друида / Сердце дракона 3: Проклятье чародея / Dragonheart 3: The sorcerer\'s curse (Колин Тиг / Colin Teague) [2015 г., США, фэнтези, приключения, HDRip-AVC] Dub +... TorrentFilm 2.18 GB
Фильмы 2015 года Сердце дракона 3: Заклятие друида / Сердце дракона 3: Проклятье чародея / Dragonheart 3: The sorcerer\'s curse (Колин Тиг / Colin Teague) [2015 г., США, фэнтези, приключения, HDRip-AVC] Dub + Sub... TorrentFilm 745 MB
Фильмы 2015 года Сердце дракона 3: Заклятие друида / Сердце дракона 3: Проклятье чародея / Dragonheart 3: The sorcerer\'s curse (Колин Тиг / Colin Teague) [2015 г., США, фэнтези, приключения, HDRip] Dub + Original... TorrentFilm 2.16 GB
Фильмы 2015 года Сердце дракона 3: Проклятье чародея / Dragonheart 3: The Sorcerer's Curse (2015) BDRip 720p sergej644 4.8 GB
Показать сообщения:    

Текущее время: Сегодня 15:45

Часовой пояс: GMT



Вы не можете начинать темы
Вы не можете отвечать на сообщения
Вы не можете редактировать свои сообщения
Вы не можете удалять свои сообщения
Вы не можете голосовать в опросах
Вы не можете прикреплять файлы к сообщениям
Вы не можете скачивать файлы