Чарльз Чаплин: Коллекция короткометражных комедий / Chaplin's Mutual Comedies (1916-1917) 2*Blu-ray [1080p] [12 фильмов]

 
Автор Сообщение

sergej644 ®

Пол:

Стаж: 4 года 11 месяцев

Сообщений: 6035

Откуда: Soviet Union



Награды: Нет

Торрент-статистика

Создавать темы 18-Окт-2014 21:18

[Цитировать]

-Чарльз Чаплин: Коллекция короткометражных комедий / Chaplin's Mutual Comedies (1916-1917) 2*Blu-ray
«12 newly restored films»
- Год выпуска: 1916-1917
Производство: США / Lone Star Corporation
Жанр: Короткометражка, комедия

Описание:
Чарли Чаплин — это человек-легенда. Даже в век компьютеров и немыслимых спецэффектов его черно-белые немые фильмы, давным-давно ставшие классикой кинематографа, впечатляют так, как не всегда впечатлит самый крутой и навороченный голливудский блокбастер. Фильмы Чарли Чаплина — особенные. Он выступал в роли сценариста, режиссера, актера (играя порой не одну роль в одной картине) и композитора одновременно, и, наверное, именно эта безумная любовь к своему делу в сочетании с безграничным универсальным талантом Чарли сделала его фильмы поистине бессмертными. Они до сих пор заставляют смеяться и плакать, они позволяют взглянуть другими глазами на мелкие жизненные неурядицы и, подобно герою Чаплина — Бродяге, не сдаваться и не унывать.
Режиссер: Чарльз Чаплин / Charles Chaplin
Продюсер: Чарльз Чаплин, Генри П. Колфилд, Джон Джаспер
Актеры: Чарльз Чаплин, Эрик Кэмпбелл, Эдна Первиэнс, Ллойд Бэйкон, Альберт Остин, Шарлотта Мино, Фрэнк Дж. Коулмэн, Джеймс Т. Келли, Джон Рэнд, Уэсли Рагглз, Лео Уайт, Генри Бергман, Леота Брайан, Уильям Гиллеспи, Китти Брэдбери, Том Хэррингтон, Филлис Аллен
Перевод: Немое кино (английские интертитры)
Субтитры: Отсутствуют
Возраст: 12+ (зрителям, достигшим 12 лет)
Продолжительность: 03:33:15 (0:25:50 + 00:26:27 + 00:26:40 + 00:27:29 + 00:25:14 + 00:26:44 + 00:25:26 + 00:25:50) + 01:45:30 (00:27:01 + 00:26:29 + 00:25:00 + 00:26:58)
Качество видео: Blu-ray
Видео: MPEG-4 AVC/H.264 (High Profile 4.1), 1920x1080, ~25000 kbps, 23.976 fps
Аудио 1: AC3 2.0, 192 kbps, 48 KHz, 16-bit, -4db [Музыкальное сопровождение]
Аудио 2: AC3 2.0, 192 kbps, 48 KHz, 16-bit, -4db [Музыкальное сопровождение]
-Содержание:

01. Контролер универмага / The Floorwalker (1916)

Прoдолжительность: 00:29:22
Oписание фильма:
Бродяга Чарли приходит в богатый универмаг, где в это время разворачиваются интересные события — контролер универмага оглушил директора и украл кругленькую сумму денег. Контролер, кстати, как две капли воды похож на Чарли… Кроме этого в магазине присутствует целая толпа мелких воришек, красавица секретарша, ненавистный полотер и главный враг Чарли — эскалатор!-
Музыкальное сопровождение:
1. Music by Gabriel Thibaudeau
2. Alternate Improvisational Piano by Antonio Coppola

02. Пожарный / The Fireman (1916)

Прoдолжительность: 00:26:27
Oписание фильма:
Чарли играет пожарного, который всегда все делает не так. Однажды один человек, который поджег свой дом с целью получить страховку, договорился с шефом пожарных, чтобы тот не приезжал на место пожара, несмотря на то, что на верхнем этаже дома была его дочь. Но когда огонь перекидывается на соседний дом, то владелец этого дома вызывает команду пожарных…-
Музыкальное сопровождение:
1. Original Fotoplayer Music and Sound Effects Played and Adapted by Robert Israel
2. Alternate Improvisational Piano by Neil Brand

03. Бродяга-музыкант / The Vagabond (1916)

Прoдолжительность: 00:26:40
Oписание фильма:
В этой картине Чаплин исполняет роль бродячего музыканта. Странствуя по городам, Чарли спасает от злодеев-цыган маленькую белокурую поденщицу, увозит ее и, разумеется, влюбляется. Теперь они странствуют вдвоем, но их идиллия длится недолго — приключения только начинаются…-
Музыкальное сопровождение:
1. Music by the Mont Alto Motion Picture Orchestra
2. Alternate Improvisational Piano by Antonio Coppola

04. В час ночи / One A.M. (1916)

Прoдолжительность: 00:27:29
Oписание фильма:
Герой — богатый бездельник, который возвращается домой в сильном подпитии и долго и безуспешно пытается добраться из прихожей первого этажа своего дома в спальню, находящуюся на втором этаже. Любой встреченный им предмет мебели (вращающийся столик, коврик, чучела медведя и рыси, шкура тигра, маятник часов и другие) воспринимается им как препятствие и преодолевается в несколько приёмов. При этом герой прилагает огромные усилия для того, чтобы не потерять «аристократической» манеры поведения.-
Музыкальное сопровождение:
1. Music by Carl Davis
2. Alternate Improvisational Piano by Gabriel Thibaudeau

05. Граф / The Count (1916)

Прoдолжительность: 00:25:14
Oписание фильма:
В фильме «Граф» главный герой — портняжка при сердитом хозяине с нелепой бородой. Причем оба добиваются расположения богатой дамы, у которой случайно оказались на балу. Каждый из них выдает себя за знатного графа. Полная неразбериха, потасовки, швыряния мороженым и, естественно, непрерывный смех.-
Музыкальное сопровождение:
1. Music by Donald Sosin, Peter Breiner, and Richard A. Whiting
2. Alternate Improvisational Piano by Neil Brand

06. Ссудная лавка / The Pawnshop (1916)

Прoдолжительность: 00:26:44
Oписание фильма:
Чарли приняли на работу в лавку ростовщика. Его враг — помощник хозяина. Чарли попадает в кучу комических ситуаций, принимая часы в залог от клиента…-
Музыкальное сопровождение:
1. Music by Winston Sharples & Gene Rodemich/Adaptation by Eric Beheim & Robert Israel
2. Alternate Improvisational Piano by Donald Sosin

07. За кулисами кино / Behind the Screen (1916)

Прoдолжительность: 00:25:26
Oписание фильма:
Маленький, всеми помыкаемый реквизитор Давид, выведенный из себя бесконечными придирками ленивых рабочих и прежде всего собственного начальника по имени Голиаф, устраивает забастовку и начинает мстить своим обидчикам. Ему помогает девушка, которая ищет работу и переоделась парнем. Когда Давид выясняет, что это девушка, то влюбляется в нее…-
Музыкальное сопровождение:
1. Music by Robert Israel
2. Alternate Improvisational Piano by Antonio Coppola

08. Каток / The Rink (1916)

Прoдолжительность: 00:25:50
Oписание фильма:
Герой Чарли работает в ресторане. После череды приключений на работе он во время ланча отправляется отдохнуть на каток. Там он видит, как мистер Стаут активно ухаживает за девушкой, которой он не нравится. Вечером Чарли появляется на вечеринке у той девушки, представляясь как сэр Сесил Селтцер…-
Музыкальное сопровождение:
1. Music by Antonio Coppola
2. Alternate Improvisational Piano by Maud Nelissen

09. Тихая улица / Easy Street (1917)

Прoдолжительность: 00:27:01
Oписание фильма:
В этом фильме Чарли как бы начинает новую жизнь — он поступает на работу в полицию. В полиции его направляют на самый опасный участок — на одну из «тихих улиц» городских трущоб, которую единовластно держит в страхе местный «авторитет». Схватка щуплого Чарли и громадного верзилы неизбежна.-
Музыкальное сопровождение:
1. Music by Neil Brand
2. Alternate Improvisational Piano by Donald Sosin

10. Исцеление / The Cure (1917)

Прoдолжительность: 00:26:29
Oписание фильма:
На сей раз повод для смеха у Чаплина — распространенная человеческая слабость — любовь к алкоголю. В этом фильме герой фильма — не бродяжка, а богатый выпивоха, приехавший на курорт минеральных вод. Но целебные воды — не для него, он притащил с собой огромный баул со спиртным, которого отведали неожиданно для себя все отдыхающие.-
Музыкальное сопровождение:
1. Music by Stephen Horne
2. Alternate Improvisational Piano by Maud Nelissen

11. Иммигрант / The Immigrant (1917)

Прoдолжительность: 00:25:00
Oписание фильма:
Немой комедийный шедевр Чаплина, который и сегодня не утратил иронии, остроты и сострадательности. Маленький Бродяга, он же иммигрант, переплывающий на корабле океан, чтобы увидеть «свободный мир», где его встречают пинками и тумаками…-
Музыкальное сопровождение:
1. Music by Timothy Brock
2. Alternate Improvisational Piano by Donald Sosin

12. Искатель приключений / The Adventurer (1917)

Прoдолжительность: 00:26:58
Oписание фильма:
Главный герой картины сбежал с каторги. Удирая от отряда полицейских, он проделывает каскад грандиозных трюков. В фильме лихо закручен сюжет: здесь и преследование, и спасение из воды, и перипетии на светском рауте.-
Музыкальное сопровождение:
1. Music by Robert Israel
2. Alternate Improvisational Piano by Neil Brand
*****

BDInfo Report: Disc 1

DISC INFO:
Disc Title:     Disc 1
Disc Size:      42 604 047 700 bytes
Protection:     AACS
BD-Java:        No
BDInfo:         0.5.8
PLAYLIST REPORT:
Name:                   00002.MPLS
Length:                 3:33:15.490 (h:m:s.ms)
Size:                   42 591 989 760 bytes
Total Bitrate:          26.63 Mbps
VIDEO:
Codec                   Bitrate             Description
-----                   -------             -----------
MPEG-4 AVC Video        24990 kbps          1080p / 23.976 fps / 16:9 / High Profile 4.1
AUDIO:
Codec                           Language        Bitrate         Description
-----                           --------        -------         -----------
Dolby Digital Audio             English         192 kbps        2.0 / 48 kHz / 192 kbps / DN -4dB
Dolby Digital Audio             English         192 kbps        2.0 / 48 kHz / 192 kbps / DN -4dB
FILES:
Name            Time In         Length          Size            Total Bitrate
----            -------         ------          ----            -------------
00006.M2TS      0:00:00.000     0:29:22.594     5 848 780 800   26 546
00007.M2TS      0:29:22.594     0:26:27.460     5 286 758 400   26 643
00008.M2TS      0:55:50.055     0:26:40.015     5 328 500 736   26 642
00009.M2TS      1:22:30.070     0:27:29.230     5 492 232 192   26 641
00010.M2TS      1:49:59.300     0:25:14.221     5 043 025 920   26 644
00011.M2TS      2:15:13.522     0:26:44.769     5 344 352 256   26 642
00012.M2TS      2:41:58.291     0:25:26.566     5 083 938 816   26 642
00013.M2TS      3:07:24.858     0:25:50.632     5 164 400 640   26 644
CHAPTERS:
Number          Time In         Length          Avg Video Rate  Max 1-Sec Rate  Max 1-Sec Time  Max 5-Sec Rate  Max 5-Sec Time  Max 10Sec Rate  Max 10Sec Time  Avg Frame Size  Max Frame Size  Max Frame Time
------          -------         ------          --------------  --------------  --------------  --------------  --------------  --------------  --------------  --------------  --------------  --------------
1               0:00:00.000     0:06:23.466     21 145 kbps     39 907 kbps     00:02:24.602    36 725 kbps     00:02:51.880    35 459 kbps     00:02:50.128    110 230 bytes   385 623 bytes   00:02:54.674
2               0:06:23.466     0:04:17.423     26 665 kbps     35 223 kbps     00:09:52.049    31 728 kbps     00:09:50.965    30 006 kbps     00:09:23.938    139 018 bytes   382 670 bytes   00:07:11.305
3               0:10:40.890     0:05:22.155     26 289 kbps     45 720 kbps     00:15:10.409    40 549 kbps     00:15:10.409    37 825 kbps     00:15:10.367    137 061 bytes   591 589 bytes   00:15:14.413
4               0:16:03.045     0:03:53.650     24 536 kbps     37 867 kbps     00:16:26.860    34 493 kbps     00:16:23.524    33 622 kbps     00:16:03.420    127 918 bytes   392 687 bytes   00:18:33.821
5               0:19:56.695     0:04:59.173     24 837 kbps     37 575 kbps     00:23:42.462    34 023 kbps     00:23:34.121    33 477 kbps     00:23:33.537    129 491 bytes   535 025 bytes   00:23:35.747
6               0:24:55.869     0:04:26.724     27 369 kbps     44 032 kbps     00:28:59.070    39 807 kbps     00:28:43.221    36 804 kbps     00:28:38.216    142 691 bytes   662 652 bytes   00:29:03.575
7               0:29:22.594     0:05:17.567     23 836 kbps     42 657 kbps     00:31:05.238    38 226 kbps     00:30:33.081    37 231 kbps     00:30:29.077    124 270 bytes   567 394 bytes   00:31:56.247
8               0:34:40.161     0:04:52.875     28 525 kbps     38 140 kbps     00:38:44.280    36 830 kbps     00:38:28.848    36 567 kbps     00:38:24.885    148 716 bytes   464 005 bytes   00:38:35.438
9               0:39:33.037     0:03:33.212     25 284 kbps     41 811 kbps     00:40:02.399    37 042 kbps     00:40:25.923    35 512 kbps     00:39:55.267    131 819 bytes   445 806 bytes   00:40:01.899
10              0:43:06.250     0:05:20.737     22 040 kbps     34 372 kbps     00:43:26.270    32 388 kbps     00:43:22.308    31 119 kbps     00:43:18.637    114 905 bytes   416 020 bytes   00:47:17.292
11              0:48:26.987     0:07:23.067     25 518 kbps     50 639 kbps     00:51:57.614    39 991 kbps     00:55:15.186    37 561 kbps     00:55:15.103    133 041 bytes   643 028 bytes   00:54:08.870
12              0:55:50.055     0:04:50.623     24 956 kbps     41 174 kbps     00:56:30.095    38 883 kbps     00:56:30.095    37 703 kbps     00:56:29.094    130 110 bytes   605 181 bytes   00:57:49.841
13              1:00:40.678     0:04:40.321     27 729 kbps     41 307 kbps     01:01:03.368    36 466 kbps     01:01:46.953    34 379 kbps     01:01:43.950    144 564 bytes   522 748 bytes   01:00:52.815
14              1:05:21.000     0:04:03.159     29 140 kbps     43 544 kbps     01:08:21.347    39 481 kbps     01:08:00.201    36 248 kbps     01:08:13.380    151 924 bytes   572 967 bytes   01:08:22.348
15              1:09:24.159     0:07:37.999     23 600 kbps     40 399 kbps     01:13:50.175    36 498 kbps     01:13:48.549    32 956 kbps     01:13:48.257    123 039 bytes   458 317 bytes   01:13:33.575
16              1:17:02.159     0:05:27.910     21 602 kbps     33 726 kbps     01:19:17.419    31 354 kbps     01:19:15.125    29 544 kbps     01:19:10.120    112 625 bytes   401 813 bytes   01:19:10.996
17              1:22:30.070     0:06:07.533     20 252 kbps     34 922 kbps     01:28:18.710    33 420 kbps     01:28:16.582    31 954 kbps     01:28:15.832    105 583 bytes   447 415 bytes   01:23:49.357
18              1:28:37.603     0:05:16.858     23 643 kbps     31 356 kbps     01:28:39.731    28 584 kbps     01:30:49.026    27 887 kbps     01:30:49.193    123 263 bytes   323 744 bytes   01:30:53.072
19              1:33:54.462     0:03:37.425     24 461 kbps     34 748 kbps     01:37:18.249    32 820 kbps     01:37:18.040    32 315 kbps     01:36:31.368    127 527 bytes   334 064 bytes   01:37:21.210
20              1:37:31.887     0:05:07.015     29 738 kbps     39 492 kbps     01:40:57.259    36 308 kbps     01:38:30.863    36 067 kbps     01:38:26.275    155 041 bytes   365 688 bytes   01:39:37.971
21              1:42:38.902     0:07:20.398     26 908 kbps     40 227 kbps     01:49:03.036    37 260 kbps     01:48:22.787    36 155 kbps     01:48:17.908    140 288 bytes   406 688 bytes   01:48:44.309
22              1:49:59.300     0:05:21.863     22 734 kbps     34 564 kbps     01:51:03.198    32 469 kbps     01:52:50.054    32 301 kbps     01:52:50.597    118 525 bytes   347 021 bytes   01:53:00.148
23              1:55:21.164     0:05:03.177     23 700 kbps     39 913 kbps     01:57:07.520    36 205 kbps     02:00:01.611    35 216 kbps     02:00:02.361    123 560 bytes   442 815 bytes   02:00:10.786
24              2:00:24.342     0:05:40.548     26 448 kbps     38 488 kbps     02:04:35.718    36 314 kbps     02:04:45.644    34 978 kbps     02:04:41.098    137 890 bytes   460 402 bytes   02:05:49.416
25              2:06:04.890     0:03:31.502     27 977 kbps     38 525 kbps     02:06:22.616    36 137 kbps     02:06:23.826    34 178 kbps     02:09:08.031    145 859 bytes   400 541 bytes   02:06:38.966
26              2:09:36.393     0:05:37.128     25 016 kbps     40 664 kbps     02:14:14.087    38 898 kbps     02:14:14.004    37 490 kbps     02:14:14.004    130 424 bytes   590 969 bytes   02:14:19.009
27              2:15:13.522     0:05:06.180     24 039 kbps     39 779 kbps     02:18:47.110    38 133 kbps     02:18:47.068    37 506 kbps     02:18:46.901    125 328 bytes   495 489 bytes   02:18:54.576
28              2:20:19.702     0:04:11.209     29 628 kbps     38 217 kbps     02:20:57.365    36 727 kbps     02:20:19.869    35 964 kbps     02:20:19.869    154 466 bytes   613 206 bytes   02:21:10.795
29              2:24:30.912     0:05:01.259     27 593 kbps     42 548 kbps     02:29:23.204    39 357 kbps     02:24:34.373    37 629 kbps     02:24:34.248    143 860 bytes   630 872 bytes   02:25:37.395
30              2:29:32.171     0:04:39.779     23 989 kbps     32 666 kbps     02:33:53.223    30 262 kbps     02:33:52.306    29 288 kbps     02:30:00.366    125 068 bytes   450 600 bytes   02:33:53.307
31              2:34:11.950     0:07:46.340     22 077 kbps     40 306 kbps     02:35:31.029    33 978 kbps     02:40:48.388    33 487 kbps     02:40:28.285    115 098 bytes   395 345 bytes   02:40:09.725
32              2:41:58.291     0:05:13.521     21 907 kbps     35 907 kbps     02:44:49.170    34 824 kbps     02:44:46.710    34 573 kbps     02:44:43.581    114 211 bytes   421 742 bytes   02:45:58.615
33              2:47:11.813     0:06:07.825     25 909 kbps     37 520 kbps     02:52:39.682    33 458 kbps     02:52:38.639    33 051 kbps     02:52:39.432    135 078 bytes   418 210 bytes   02:49:30.910
34              2:53:19.639     0:06:05.990     26 232 kbps     35 339 kbps     02:57:14.790    33 273 kbps     02:57:14.623    31 446 kbps     02:57:21.213    136 761 bytes   402 457 bytes   02:53:42.662
35              2:59:25.629     0:03:23.161     26 475 kbps     34 994 kbps     03:02:47.706    31 386 kbps     03:01:42.391    30 986 kbps     03:01:40.639    138 030 bytes   421 252 bytes   03:01:41.890
36              3:02:48.791     0:04:36.067     24 596 kbps     39 045 kbps     03:06:24.506    35 463 kbps     03:06:22.296    34 930 kbps     03:06:22.796    128 230 bytes   541 955 bytes   03:04:23.760
37              3:07:24.858     0:05:41.632     23 430 kbps     36 832 kbps     03:12:50.100    34 701 kbps     03:10:13.860    34 166 kbps     03:10:09.940    122 151 bytes   375 933 bytes   03:09:59.513
38              3:13:06.491     0:04:25.390     28 247 kbps     40 405 kbps     03:17:00.350    36 673 kbps     03:16:56.804    35 851 kbps     03:16:52.425    147 266 bytes   409 379 bytes   03:13:35.437
39              3:17:31.881     0:06:05.698     26 137 kbps     36 884 kbps     03:18:52.420    34 235 kbps     03:19:16.903    33 650 kbps     03:19:16.903    136 264 bytes   415 209 bytes   03:19:34.504
40              3:23:37.580     0:03:51.147     23 541 kbps     47 222 kbps     03:24:28.339    33 817 kbps     03:25:22.268    32 801 kbps     03:25:17.513    122 731 bytes   556 441 bytes   03:24:29.840
41              3:27:28.727     0:05:46.763     23 847 kbps     34 502 kbps     03:27:37.319    32 372 kbps     03:27:37.027    31 451 kbps     03:27:34.817    124 345 bytes   364 666 bytes   03:27:35.818

BDInfo Report: Disc 2

DISC INFO:
Disc Title:     Disc 2
Disc Size:      35 709 595 920 bytes
Protection:     AACS
BD-Java:        No
BDInfo:         0.5.8
PLAYLIST REPORT:
Name:                   00002.MPLS
Length:                 1:45:30.282 (h:m:s.ms)
Size:                   21 081 698 304 bytes
Total Bitrate:          26.64 Mbps
VIDEO:
Codec                   Bitrate             Description
-----                   -------             -----------
MPEG-4 AVC Video        25002 kbps          1080p / 23.976 fps / 16:9 / High Profile 4.1
AUDIO:
Codec                           Language        Bitrate         Description
-----                           --------        -------         -----------
Dolby Digital Audio             English         192 kbps        2.0 / 48 kHz / 192 kbps / DN -4dB
Dolby Digital Audio             English         192 kbps        2.0 / 48 kHz / 192 kbps / DN -4dB
FILES:
Name            Time In         Length          Size            Total Bitrate
----            -------         ------          ----            -------------
00006.M2TS      0:00:00.000     0:27:01.328     5 399 592 960   26 643
00007.M2TS      0:27:01.328     0:26:29.713     5 294 161 920   26 642
00008.M2TS      0:53:31.041     0:25:00.999     4 998 862 848   26 643
00009.M2TS      1:18:32.040     0:26:58.241     5 389 080 576   26 642
CHAPTERS:
Number          Time In         Length          Avg Video Rate  Max 1-Sec Rate  Max 1-Sec Time  Max 5-Sec Rate  Max 5-Sec Time  Max 10Sec Rate  Max 10Sec Time  Avg Frame Size  Max Frame Size  Max Frame Time
------          -------         ------          --------------  --------------  --------------  --------------  --------------  --------------  --------------  --------------  --------------  --------------
1               0:00:00.000     0:04:58.881     22 978 kbps     35 817 kbps     00:00:48.715    33 512 kbps     00:01:50.235    33 054 kbps     00:01:30.298    119 779 bytes   416 653 bytes   00:04:45.410
2               0:04:58.881     0:03:51.856     26 577 kbps     39 307 kbps     00:08:15.077    35 850 kbps     00:06:26.052    35 276 kbps     00:06:20.338    138 558 bytes   525 095 bytes   00:08:15.953
3               0:08:50.738     0:05:34.042     22 355 kbps     34 082 kbps     00:12:04.265    30 592 kbps     00:12:01.095    28 246 kbps     00:12:59.069    116 548 bytes   403 281 bytes   00:14:20.401
4               0:14:24.780     0:07:54.182     26 375 kbps     38 988 kbps     00:21:50.517    36 449 kbps     00:21:46.513    36 128 kbps     00:21:41.550    137 505 bytes   418 547 bytes   00:21:14.022
5               0:22:18.962     0:04:42.365     26 682 kbps     45 599 kbps     00:26:41.099    37 683 kbps     00:26:37.220    36 377 kbps     00:25:49.631    139 110 bytes   462 028 bytes   00:26:40.932
6               0:27:01.328     0:05:21.070     20 423 kbps     35 266 kbps     00:30:10.433    33 767 kbps     00:30:41.256    31 274 kbps     00:30:40.838    106 474 bytes   352 310 bytes   00:30:11.142
7               0:32:22.398     0:04:32.730     24 706 kbps     32 528 kbps     00:36:34.692    31 779 kbps     00:36:32.940    31 627 kbps     00:36:29.562    128 807 bytes   366 924 bytes   00:36:06.747
8               0:36:55.129     0:04:24.305     27 611 kbps     38 462 kbps     00:40:54.743    33 947 kbps     00:40:52.074    31 689 kbps     00:40:48.320    143 953 bytes   400 127 bytes   00:38:43.446
9               0:41:19.435     0:05:21.571     28 458 kbps     38 160 kbps     00:45:45.033    35 162 kbps     00:45:45.242    34 958 kbps     00:45:45.033    148 368 bytes   391 864 bytes   00:45:45.909
10              0:46:41.006     0:06:50.034     24 392 kbps     37 318 kbps     00:53:11.855    33 130 kbps     00:53:07.809    31 375 kbps     00:47:29.471    127 166 bytes   375 927 bytes   00:47:34.434
11              0:53:31.041     0:04:41.864     21 832 kbps     39 673 kbps     00:56:53.409    37 997 kbps     00:56:45.026    37 387 kbps     00:56:43.900    113 821 bytes   516 484 bytes   00:57:09.551
12              0:58:12.906     0:05:39.464     26 952 kbps     38 920 kbps     01:01:31.437    36 800 kbps     01:01:30.186    35 520 kbps     01:01:25.598    140 515 bytes   563 021 bytes   01:02:17.817
13              1:03:52.370     0:05:29.787     25 860 kbps     42 522 kbps     01:04:07.718    36 483 kbps     01:04:04.131    34 614 kbps     01:04:06.425    134 824 bytes   534 519 bytes   01:04:08.886
14              1:09:22.157     0:05:05.513     25 770 kbps     35 057 kbps     01:11:53.392    31 149 kbps     01:11:52.057    30 166 kbps     01:09:26.787    134 351 bytes   342 753 bytes   01:12:49.448
15              1:14:27.671     0:04:04.369     23 838 kbps     40 971 kbps     01:17:09.708    34 402 kbps     01:17:08.957    32 999 kbps     01:17:46.244    124 282 bytes   613 642 bytes   01:17:04.995
16              1:18:32.040     0:06:00.318     22 013 kbps     45 690 kbps     01:24:23.224    40 000 kbps     01:24:15.258    36 485 kbps     01:24:14.215    114 765 bytes   619 889 bytes   01:24:24.225
17              1:24:32.358     0:06:12.830     28 533 kbps     44 537 kbps     01:30:00.269    40 381 kbps     01:25:28.998    37 830 kbps     01:26:17.046    148 759 bytes   672 399 bytes   01:25:32.001
18              1:30:45.189     0:05:17.817     23 478 kbps     37 066 kbps     01:34:22.823    34 709 kbps     01:31:59.430    33 950 kbps     01:31:54.258    122 402 bytes   471 611 bytes   01:31:56.510
19              1:36:03.007     0:03:50.772     25 249 kbps     33 746 kbps     01:38:07.715    31 306 kbps     01:38:15.264    29 998 kbps     01:38:07.673    131 637 bytes   423 715 bytes   01:36:12.016
20              1:39:53.779     0:05:36.502     25 558 kbps     41 126 kbps     01:44:12.954    38 865 kbps     01:44:12.829    37 298 kbps     01:44:12.829    133 262 bytes   573 556 bytes   01:44:19.836

Дополнительно на диске

  • The home-video premiere of a 52-minute documentary by Serge Bromberg and Eric Lange, The Birth of the Tramp, which chronicles Chaplin’s rise to stardom in concordance with early cinema’s growth from fairground attraction into an international industry
  • Chaplin’s Goliath by Academy Award® winner Kevin Macdonald, which tells the story of Charlie’s nemesis Eric Campbell, who achieved screen immortality with his appearances in eleven of these comedies.
Скриншоты меню:

Скриншоты фильма:


Все двенадцать короткометражных фильмов были восстановлены в 2K и реконструированы Cineteca di Bologna и Lobster Films в L'immagine Ritrovata лаборатории в 2013 году. Единственным исключением является «Иммигрант / The Immigrant», который был восстановлен в L'Immagine Ritrovata в 2012 году.
Время раздачи: 24/7 (до 10 скачавших)
[Профиль] [ЛС]
Кто просматривает тему:

Форум Тема Автор Размер
BBC BBC: Соглядатай Генриха VIII. (Силовик Генриха VIII) Взлет и падение Томаса Кромвеля / Henry VIII's Enforcer. The Rise and Fall of Thomas Cromwell (Чарльз Колвиль / Charles Colville) [2013 г... skorpionN 1.19 GB
Ужасы и мистика Говард Филлипс Лавкрафт - Случай Чарльза Декстера Варда (2015) MP3 Swager 559 MB
Мировая классика Диккенс Чарльз - Превосходный случай (2015) MP3 Swager 48 MB
Фильмы 2014 года История дельфина 2 / Dolphin Tale 2 (Чарльз Мартин Смит / Charles Martin Smith) [2014 г., США, драма, семейный, BDRip-AVC] Dub + Original Eng + Sub (Rus, Ukr, Eng) TorrentFilm 3.77 GB
Фильмы 2014 года История дельфина 2 / Dolphin Tale 2 (Чарльз Мартин Смит / Charles Martin Smith) [2014 г., США, драма, семейный, BDRip] Dub + Original Eng + Sub (Rus, Ukr, Eng) TorrentFilm 2.18 GB
Фильмы 2014 года История дельфина 2 / Dolphin Tale 2 (Чарльз Мартин Смит / Charles Martin Smith) [2014, США, драма, семейный, BDRip] Dub TorrentFilm 1.47 GB
Фильмы 2014 года История дельфина 2 / Dolphin Tale 2 (Чарльз Мартин Смит / Charles Martin Smith) [2014, США, драма, семейный, HDRip] Dub (iTunes) TorrentFilm 745 MB
Фильмы 2014 года История дельфина 2 / Dolphin Tale 2 (Чарльз Мартин Смит) [2014 г., драма, семейный, HDRip] BOSS 1.46 GB
Показать сообщения:    

Текущее время: Сегодня 20:10

Часовой пояс: GMT



Вы не можете начинать темы
Вы не можете отвечать на сообщения
Вы не можете редактировать свои сообщения
Вы не можете удалять свои сообщения
Вы не можете голосовать в опросах
Вы не можете прикреплять файлы к сообщениям
Вы не можете скачивать файлы