Чака / Chuka (1967) DVDRip [H.264] [VO]

 
Автор Сообщение

KottoSoft ®

Стаж: 2 года

Сообщений: 119



Награды: Нет

Торрент-статистика

Создавать темы 14-Дек-2014 00:52

[Цитировать]

-Чака / Chuka (1967) DVDRip [H.264]-«Of his kind Chuka's the best there is. At fighting. At loving. And when it had to be - at killing!»Год выпуска: 1967
Жанр: Вестерн
Производство: США / New Art Film Company, Paramount Pictures, Rodlor
Описание фильма:
Рассказ о Чаке, героическом бродяге Дикого Запада, который пытался установить мир, между солдатами, охранявшими небольшой форт и племенем индейцев Арапахо, которые от голода и отчаянья готовятся к его осаде. В надежде убедить командира полка, преодолеть ненависть к индейцам и помочь им, таким образом, предотвратив нападение, Чака прибывает в форт.
Режиссер: Гордон Дуглас
Сценарий: Ричард Джессуп
Продюсер: Джек Джейсон, Род Тейлор
Актеры: Род Тейлор, Эрнест Боргнайн, Джон Миллз, Лучана Палуцци, Джеймс Уитмор, Виктория Ветри, Луис Хейуорд, Майкл Коул, Хью Рейли, Бэрри О’Хара
Продолжительность: 01:44:52
Качество видео: DVDRip
Перевод: Одноголосый закадровый
Субтитры: Отсутствуют

Дата мировой премьеры: 11 июня 1967
Видеокодек: MPEG-4 AVC/H.264
Битрейт видео: ~1791 Кбит/сек
Размер кадра: 720x400
Аудиокодек: AC3 2.0
Битрейт аудио: 192 Кбит/сек
Сэмпл: Скачать

MediaInfo:

Общее
Уникальный идентификатор : 198025210160594707069698147120343573888 (0x94FA44A8B3AEC505BEAE32F068DE6580)
Полное имя : F:\Downloads\Чака.mkv
Формат : Matroska
Версия формата : Version 4 / Version 2
Размер файла : 1,45 Гбайт
Продолжительность : 1 ч. 44 м.
Общий поток : 1985 Кбит/сек
Дата кодирования : UTC 2014-12-10 06:26:22
Программа кодирования : mkvmerge v7.0.0 ('Where We Going') 32bit built on Jun 9 2014 15:08:34
Библиотека кодирования : libebml v1.3.0 + libmatroska v1.4.1
DURATION : 01:44:52.992000000
NUMBER_OF_FRAMES : 196656
NUMBER_OF_BYTES : 151031808
_STATISTICS_WRITING_APP : mkvmerge v7.0.0 ('Where We Going') 32bit built on Jun 9 2014 15:08:34
_STATISTICS_WRITING_DATE_UTC : 2014-12-10 06:26:22
_STATISTICS_TAGS : BPS DURATION NUMBER_OF_FRAMES NUMBER_OF_BYTES
Видео
Идентификатор : 1
Формат : AVC
Формат/Информация : Advanced Video Codec
Профиль формата : [url=mailto:High@L3.1]High@L3.1[/url]
Параметр CABAC формата : Да
Параметр ReFrames формата : 8 кадров
Идентификатор кодека : V_MPEG4/ISO/AVC
Продолжительность : 1 ч. 44 м.
Битрейт : 1791 Кбит/сек
Ширина : 720 пикселей
Высота : 400 пикселей
Соотношение сторон : 16:9
Режим частоты кадров : Постоянный
Частота кадров : 23,976 кадра/сек
Цветовое пространство : YUV
Субдискретизация насыщенности : 4:2:0
Битовая глубина : 8 бит
Тип развёртки : Прогрессивная
Бит/(Пиксели*Кадры) : 0.259
Размер потока : 1,28 Гбайт (88%)
Заголовок : Chuka
Библиотека кодирования : x264 core 125 r2208 d9d2288
Настройки программы : cabac=1 / ref=8 / deblock=1:-1:-1 / analyse=0x3:0x133 / me=umh / subme=9 / psy=1 / psy_rd=1.00:0.10 / mixed_ref=1 / me_range=32 / chroma_me=1 / trellis=2 / 8x8dct=1 / cqm=0 / deadzone=21,11 / fast_pskip=0 / chroma_qp_offset=-3 / threads=6 / lookahead_threads=1 / sliced_threads=0 / nr=0 / decimate=1 / interlaced=0 / bluray_compat=0 / constrained_intra=0 / bframes=3 / b_pyramid=2 / b_adapt=2 / b_bias=0 / direct=3 / weightb=1 / open_gop=0 / weightp=2 / keyint=250 / keyint_min=25 / scenecut=40 / intra_refresh=0 / rc_lookahead=60 / rc=2pass / mbtree=1 / bitrate=1791 / ratetol=1.0 / qcomp=0.60 / qpmin=0 / qpmax=69 / qpstep=4 / cplxblur=20.0 / qblur=0.5 / ip_ratio=1.40 / aq=1:1.00
Язык : English
Default : Да
Forced : Нет
Аудио
Идентификатор : 2
Формат : AC-3
Формат/Информация : Audio Coding 3
Расширение режима : CM (complete main)
Параметр Endianness формата : Big
Идентификатор кодека : A_AC3
Продолжительность : 1 ч. 44 м.
Вид битрейта : Постоянный
Битрейт : 192 Кбит/сек
Каналы : 2 канала
Расположение каналов : Front: L R
Частота : 48,0 КГц
Битовая глубина : 16 бит
Метод сжатия : С потерями
Размер потока : 144 Мбайт (10%)
Заголовок : Одноголосый закадровый
Язык : Russian
Default : Да
Forced : Нет
Скриншоты:

Дополнительные скриншоты:

[Профиль] [ЛС]
Кто просматривает тему:

Показать сообщения:    

Текущее время: Сегодня 01:27

Часовой пояс: GMT



Вы не можете начинать темы
Вы не можете отвечать на сообщения
Вы не можете редактировать свои сообщения
Вы не можете удалять свои сообщения
Вы не можете голосовать в опросах
Вы не можете прикреплять файлы к сообщениям
Вы не можете скачивать файлы