Цуна и Цруцуна / წუნა და წრუწუნა (Како Хинтибидзе) [1961, Рисованый, DVDRip] Rus Sub

 
Автор Сообщение

TorrentFilm ®

Пол:

Стаж: 2 года

Сообщений: 7741



Награды: Нет

Торрент-статистика

Создавать темы 17-Дек-2014 02:30

[Цитировать]

Цуна и Цруцуна / წუნა და წრუწუნა (Грузия-фильм)
Страна: СССР
Жанр: Рисованый
Продолжительность: 00:20:07
Год выпуска: 1961
Язык: Грузинский
Перевод: Субтитры
Русские субтитры: есть
Режиссёр: Како Хинтибидзе
Главный художник: Б.Стариковский
Эскизы типажей: Г.Новожилов
Оператор: Л.Квалиашвили
Композитор: М.Давиташвили
Художники-мультипликаторы: А.Бабановский, Г.Бучукури,И.Дояшвили, Г.Новожилов, Н.Поморцева, В.Саркисов, Н.Терян, А.Хускивадзе, Н.Шаликашвили
Описание: По произведениям А. Цагарели. Двое мышек-крестьян - девушка Цуна и паренек Цруцуна любили друг друга и решили пожениться. Местный князь решил похитить девушку. Но друзья жениха не оставили товарища в беде.
Доп. информация: Фильм в лучших традициях советской мультипликации той поры. Отсутствие дублирования при наличии субтитров просмотру не мешает.
Качество: DVDRip
Формат: AVI
Видео: 5:4, XviD, 640х512, 1732 kbps, 25 fps
Аудио: MPEG Layer 3, 48 KHz, stereo, 128 kbps
Субтитры: Русские

Подробные технические данные

Z:\Downloads\Cuna i Crucuna\Cuna.i.Crucuna.1961.XviD.DVDRip.avi General Complete name : Z:\Downloads\Cuna i Crucuna\Cuna.i.Crucuna.1961.XviD.DVDRip.avi Format : AVI Format/Info : Audio Video Interleave File size : 269 MiB Duration : 20mn 7s Overall bit rate : 1 867 Kbps Movie name : 3 - cuna da crucuna [1961] Encoded by : nikanuka Genre : Cartoon Recorded date : 03.02.2006 Writing application : AutoGordianKnot 2.26 Original source form : DVD Video #0 ID : 0 Format : MPEG-4 Visual Format profile : AdvancedSimple@L5 Format settings, BVOP : Yes Format settings, QPel : No Format settings, GMC : No warppoints Format settings, Matrix : Default (H.263) Muxing mode : Packed bitstream Codec ID : XVID Codec ID/Hint : XviD Duration : 20mn 7s Bit rate : 1 732 Kbps Width : 640 pixels Height : 512 pixels Display aspect ratio : 5:4 Frame rate : 25.000 fps Resolution : 24 bits Colorimetry : 4:2:0 Scan type : Progressive Bits/(Pixel*Frame) : 0.211 Stream size : 249 MiB (93%) Writing library : XviD 1.1.0 (UTC 2005-11-22) Audio #1 ID : 1 Format : MPEG Audio Format version : Version 1 Format profile : Layer 3 Codec ID : 55 Codec ID/Hint : MP3 Duration : 20mn 7s Bit rate mode : Constant Bit rate : 128 Kbps Channel(s) : 2 channels Sampling rate : 48.0 KHz Resolution : 16 bits Stream size : 18.4 MiB (7%) Alignment : Aligned on interleaves Interleave, duration : 80 ms (2.00 video frames) Interleave, preload duration : 504 ms Writing library : LAME3.97b Encoding settings : -m j -V 4 -q 2 -lowpass 17 -b 128 Language : Georgian / Georgian /

Скриншоты



[Профиль] [ЛС]
Кто просматривает тему:

Показать сообщения:    

Текущее время: Сегодня 11:07

Часовой пояс: GMT



Вы не можете начинать темы
Вы не можете отвечать на сообщения
Вы не можете редактировать свои сообщения
Вы не можете удалять свои сообщения
Вы не можете голосовать в опросах
Вы не можете прикреплять файлы к сообщениям
Вы не можете скачивать файлы