Цунами в 3Д / Bait in 3D (Кимбл Рендалл / Kimble Rendall) [2012, Ужасы, Триллер, Боевик, BDrip-AVC] Half OverUnder / Вертикальная анаморфная стереопара

 
Автор Сообщение

TorrentFilm ®

Пол:

Стаж: 2 года

Сообщений: 7741



Награды: Нет

Торрент-статистика

Создавать темы 04-Фев-2016 00:00

[Цитировать]

Цунaми
Bаit
Год выпуска: 2012
Страна: Австралия, Сингапур (Anchor Bay Films, Darclight, Screen Australia, Media Development Authority of Singapore)
Жанр: Ужасы, Триллер, Боевик
Продолжительность: 01:33:17
Перевод: Профессиональный дублированный
Режиссер: Кимбл Рендалл / Kimble Rendall
Роли исполняли (дублировали): Шарни Винсон (Анастасия Нестеренко), Завьер Сэмюэл (Сергей Смирнов), Фиби Тонкин, Джулиан МакМэхон, Кариба Хейн, Алекс Расселл (Даниил Эльдаров), Линкольн Льюис, Элис Паркинсон, Дэниэл Уилли, Ричард Бранкатисано, Дэмиен Гарви, Мартин Сакс (Сергей Чихачев), Николас МакКаллум, Адриан Пэнг, Ци Юйу ...
Описание: Чудовищное цунами обрушивается на курортный город. Из морских глубин на затопленные улицы вырываются голодные и жаждущие крови акулы. Начинается охота. Оказавшись в ловушке стихии, чудом уцелевшие люди пытаются выжить. Сможет ли Джош спасти жизнь девушки, которую он всегда любил, но однажды уже потерял?

Техн. детали съёмки

  • Съёмки: 11 октября 2010 — нет данных
  • Формат изображения: 1.85 : 1
  • Камера: 3Ality Technica Quasar 3D Rig
    Red One MX, Panavision Primo and PCZ Lenses
    Silicon Imaging SI-2K (hand-held/steadicam shots)
  • Формат копии: D-Cinema (also 3-D version)
  • Формат съёмок: CineForm RAW
    Redcode RAW
Премьера: 5 сентября 2012 (27 сентября 2012)
Бюджет: AUD 30 000 000

. . .
Проверено на встроенном плейере ТВ Samsung UE-C7000
--Качество: BDrip
Контейнер: MKV
Формат 3D: Half OverUnder / Вертикальная анаморфная стереопара
Порядок ракурсов: левый ракурс первый
Видео кодек: x264
Аудио кодек: AC3-Видео: AVC / 23,976 fps / 1920х1080p / 12.1 Mbps (рип видео с забугорного БД 3Д)
Аудио:
#1 - Русский / AC3 / 48 KHz / 5.1 ch / 640 Kbps (Лицензия [edit])
#2 - Английский / AC3 / 48 KHz / 5.1 ch / 640 Kbps
Субтитры вшитые softsub (SRT): English SDH

MediaInfo

General
Unique ID : 223249820492791434668496093852053480432 (0xA7F459F7BFFCB08D8F54A6406E1723F0)
Complete name : G:\Downloads\Bait(3D)2012.halfOU(Ash61).mkv
Format : Matroska
Format version : Version 2
File size : 8.87 GiB
Duration : 1h 33mn
Overall bit rate : 13.6 Mbps
Movie name : Bait (3D) 2012 (by Ash61)
Encoded date : UTC 2012-10-31 15:23:12
Writing application : mkvmerge v5.8.0 ('No Sleep / Pillow') built on Sep 2 2012 15:37:04
Writing library : libebml v1.2.3 + libmatroska v1.3.0
Video
ID : 1
Format : AVC
Format/Info : Advanced Video Codec
Format profile : High@L4.1
Format settings, CABAC : Yes
Format settings, ReFrames : 4 frames
Codec ID : V_MPEG4/ISO/AVC
Duration : 1h 33mn
Bit rate : 12.1 Mbps
Width : 1 920 pixels
Height : 1 080 pixels
Display aspect ratio : 16:9
Frame rate mode : Constant
Frame rate : 23.976 fps
Original frame rate : 25.000 fps
Color space : YUV
Chroma subsampling : 4:2:0
Bit depth : 8 bits
Scan type : Progressive
Bits/(Pixel*Frame) : 0.243
Stream size : 7.86 GiB (89%)
Title : BDrip by Ash61
Writing library : x264 core 119 r2106 07efeb4
Encoding settings : cabac=1 / ref=4 / deblock=1:-3:-3 / analyse=0x3:0x113 / me=umh / subme=9 / psy=1 / psy_rd=1.00:0.15 / mixed_ref=1 / me_range=16 / chroma_me=1 / trellis=2 / 8x8dct=1 / cqm=0 / deadzone=21,11 / fast_pskip=1 / chroma_qp_offset=-3 / threads=12 / sliced_threads=0 / nr=0 / decimate=1 / interlaced=0 / bluray_compat=0 / constrained_intra=0 / bframes=6 / b_pyramid=2 / b_adapt=2 / b_bias=0 / direct=3 / weightb=1 / open_gop=0 / weightp=2 / keyint=250 / keyint_min=25 / scenecut=40 / intra_refresh=0 / rc_lookahead=60 / rc=crf / mbtree=1 / crf=16.0 / qcomp=0.60 / qpmin=10 / qpmax=51 / qpstep=4 / vbv_maxrate=40000 / vbv_bufsize=40000 / crf_max=0.0 / nal_hrd=none / frame-packing=4 / ip_ratio=1.40 / aq=1:0.70
Language : English
Default : Yes
Forced : No
Audio #1
ID : 2
Format : AC-3
Format/Info : Audio Coding 3
Mode extension : CM (complete main)
Format settings, Endianness : Big
Codec ID : A_AC3
Duration : 1h 33mn
Bit rate mode : Constant
Bit rate : 640 Kbps
Channel(s) : 6 channels
Channel positions : Front: L C R, Side: L R, LFE
Sampling rate : 48.0 KHz
Bit depth : 16 bits
Compression mode : Lossy
Stream size : 427 MiB (5%)
Title : Дубляж
Language : Russian
Default : Yes
Forced : No
Audio #2
ID : 3
Format : AC-3
Format/Info : Audio Coding 3
Mode extension : CM (complete main)
Format settings, Endianness : Big
Codec ID : A_AC3
Duration : 1h 33mn
Bit rate mode : Constant
Bit rate : 640 Kbps
Channel(s) : 6 channels
Channel positions : Front: L C R, Side: L R, LFE
Sampling rate : 48.0 KHz
Bit depth : 16 bits
Compression mode : Lossy
Stream size : 427 MiB (5%)
Title : Original
Language : English
Default : No
Forced : No
Text
ID : 4
Format : UTF-8
Codec ID : S_TEXT/UTF8
Codec ID/Info : UTF-8 Plain Text
Language : English
Default : No
Forced : No
Menu
00:00:00.000 : :1
00:08:12.492 : :2
00:16:06.883 : :3
00:23:38.334 : :4
00:32:37.497 : :5
00:40:12.118 : :6
00:48:09.720 : :7
00:54:46.116 : :8
01:01:40.405 : :9
01:11:43.007 : :10
01:21:14.745 : :11
01:27:36.793 : :12

Скриншоты

Для оценки качества 3д: Анимация

Для оценки качества 3д: Чёрно-белые скрины в анаглифе

[Профиль] [ЛС]
Показать сообщения:    

Текущее время: Сегодня 10:53

Часовой пояс: GMT



Вы не можете начинать темы
Вы не можете отвечать на сообщения
Вы не можете редактировать свои сообщения
Вы не можете удалять свои сообщения
Вы не можете голосовать в опросах
Вы не можете прикреплять файлы к сообщениям
Вы не можете скачивать файлы