Цоци / Tsotsi (2005) BDRip 720p от grab777 | P2

 
Автор Сообщение

sergej644 ®

Пол:

Стаж: 4 года 11 месяцев

Сообщений: 6045

Откуда: Soviet Union



Награды: Нет

Торрент-статистика

Создавать темы 11-Фев-2015 12:14

[Цитировать]

Информация о фильме
Название: Цоци
Оригинальное название: Tsotsi
Год выхода: 2005
Жанр: Драма, криминал
Режиссер: Гэвин Худ
В ролях: Пресли Чвенайдаэ, Терри Фето, Кеннет Нкоси, Мотуси Магано, Зензо Нгкобе, Зоула, Рапулана Сейфемо, Намбита Мпумлвана, Нотуту Сибизи, Нтутуко Сибизи
О фильме:
Соуэто — бедный пригород Йоханнесбурга, единственная цель обитателей которого — выжить любой ценой. Цоци — юный безжалостный главарь уличной банды. Угнав
автомобиль после пьяной вечеринки, он обнаруживает себя один на один со случайно оказавшимся на заднем сидении младенцем. С этого времени у него
начинается внутренняя борьба между жестокостью и любовью…

Официальный сайт
Выпущено: ЮАР, Великобритания / Industrial Development Corporation of South Africa, Moviworld, The National Film and Video Foundation of SA, The UK Film & TV Production Company PLC
Продолжительность: 01:34:27
Перевод: Профессиональный (двухголосый закадровый)
Файл
Формат: MKV
Качество: BDRip 720p
Видео: MPEG-4 AVC, 6500 Кбит/с, 1280x720
Аудио: Русский (AC3, 6 ch, 448 Кбит/с), африкаанс [и местные диалекты] (AC3, 6 ch, 640 Кбит/с)
Семпл

Media Info:


Общее
Уникальный идентификатор : 250385212141480169825675438995912141079 (0xBC5E7011A981596239BF49873BAE2917)
Полное имя : F:Мои ФаилыTsotsi.2005.BDRip.720p_by_grab777.mkv
Формат : Matroska
Версия формата : Version 2
Размер файла : 5,00 Гбайт
Продолжительность : 1 ч. 34 м.
Общий поток : 7579 Кбит/сек
Программа кодирования : XviD4PSP 6.0 / 54.29.105
Библиотека кодирования : XviD4PSP 6.0 / 54.29.105
Видео
Идентификатор : 1
Формат : AVC
Формат/Информация : Advanced Video Codec
Профиль формата : High@L4.1
Параметр CABAC формата : Да
Параметр ReFrames формата : 11 кадров
Идентификатор кодека : V_MPEG4/ISO/AVC
Продолжительность : 1 ч. 34 м.
Битрейт : 6500 Кбит/сек
Ширина : 1280 пикселей
Высота : 720 пикселей
Соотношение сторон : 16:9
Режим частоты кадров : Постоянный
Частота кадров : 23,976 кадра/сек
Цветовое пространство : YUV
Субдискретизация насыщенности : 4:2:0
Битовая глубина : 8 бит
Тип развёртки : Прогрессивная
Бит/(Пиксели*Кадры) : 0.294
Размер потока : 4,18 Гбайт (84%)
Библиотека кодирования : x264 core 128 r2216M 198a7ea
Настройки программы : cabac=1 / ref=12 / deblock=1:3:3 / analyse=0x3:0x133 / me=umh / subme=9 / psy=1 / psy_rd=1.00:0.20 / mixed_ref=1 / me_range=32 / chroma_me=1 / trellis=2 / 8x8dct=1 / cqm=0 / deadzone=21,11 / fast_pskip=1 / chroma_qp_offset=-3 / threads=4 / lookahead_threads=1 / sliced_threads=0 / nr=0 / decimate=1 / interlaced=0 / bluray_compat=0 / constrained_intra=0 / bframes=12 / b_pyramid=1 / b_adapt=2 / b_bias=3 / direct=3 / weightb=1 / open_gop=0 / weightp=2 / keyint=230 / keyint_min=23 / scenecut=40 / intra_refresh=0 / rc_lookahead=60 / rc=2pass / mbtree=1 / bitrate=6500 / ratetol=1.0 / qcomp=0.60 / qpmin=10 / qpmax=51 / qpstep=4 / cplxblur=20.0 / qblur=0.5 / vbv_maxrate=31250 / vbv_bufsize=31250 / nal_hrd=none / ip_ratio=1.40 / aq=1:1.00
Default : Да
Forced : Нет
Аудио #1
Идентификатор : 2
Формат : AC-3
Формат/Информация : Audio Coding 3
Расширение режима : CM (complete main)
Параметр Endianness формата : Big
Идентификатор кодека : A_AC3
Продолжительность : 1 ч. 34 м.
Вид битрейта : Постоянный
Битрейт : 448 Кбит/сек
Каналы : 6 каналов
Расположение каналов : Front: L C R, Side: L R, LFE
Частота : 48,0 КГц
Битовая глубина : 16 бит
Метод сжатия : С потерями
Задержка видео : 32 мс.
Размер потока : 303 Мбайт (6%)
Язык : Russian
Default : Да
Forced : Нет
Аудио #2
Идентификатор : 3
Формат : AC-3
Формат/Информация : Audio Coding 3
Расширение режима : CM (complete main)
Параметр Endianness формата : Big
Идентификатор кодека : A_AC3
Продолжительность : 1 ч. 34 м.
Вид битрейта : Постоянный
Битрейт : 640 Кбит/сек
Каналы : 6 каналов
Расположение каналов : Front: L C R, Side: L R, LFE
Частота : 48,0 КГц
Битовая глубина : 16 бит
Метод сжатия : С потерями
Задержка видео : 59 мс.
Размер потока : 432 Мбайт (8%)
Язык : Afrikaans
Default : Да
Forced : Нет

Награды:

Оскар, 2006 год
Победитель (1):
Лучший фильм на иностранном языке — «Южная Африка»
Золотой глобус, 2006 год
Номинации (1):
Лучший фильм на иностранном языке — «ЮАР»
Британская академия, 2006 год
Номинации (2):
Лучший фильм на иностранном языке
Премия имени Карла Формана самому многообещающему новичку (Питер Фудаковски)
Европейская киноакадемия, 2005 год
Номинации (1):
Приз Screen International Award

Скриншоты

[Профиль] [ЛС]
Кто просматривает тему:

Форум Тема Автор Размер
R.G.TorrentFilm Video Цоци / Tsotsi (Гэвин Худ / Gavin Hood) [2005 г., Драма, криминал, HDRip] DVO Один 777 746 MB
Показать сообщения:    

Текущее время: Сегодня 08:03

Часовой пояс: GMT



Вы не можете начинать темы
Вы не можете отвечать на сообщения
Вы не можете редактировать свои сообщения
Вы не можете удалять свои сообщения
Вы не можете голосовать в опросах
Вы не можете прикреплять файлы к сообщениям
Вы не можете скачивать файлы